Welcome Guest ( Log In | Register )

> The Vth Circle - I (2019), Melodic Death Metal
post Nov 16 2019, 04:36:07
Post #1

Правь статус, ####!111
**************
Group: Металариец
Posts: 21,968
Releases: 15162
From: Г.Харьков
On Forums: 8 years 3 weeks
Thanks: 275338 time(s)
Unknown


(IMG:http://metalarea.org/images/audiocovers/2019_Nov/acov_tid330399_thumb.jpg)

*Artist: The Vth Circle
*Album: I
*Year: 2019
*Genre: Melodic Death Metal
*Country: Canada (IMG:http://metalarea.org/forum/style_images/flags/Canada.png)
*Format: mp3@CBR320kbps
*Size: 92MB

Tracklist:
1. The River 02:30
2. Idyllica 06:43
3. Oceans 04:40
4. The Storm 02:18
5. Rotter 05:59
6. Islands 04:10
7. Reborn 05:58
8. And the Waves Came Rolling In... 02:00
9. The Standoff 05:31
******************************
Total playing time: 39:49




Extended info
Nikki Gould Bass
See also: War Boar, ex-Kymatica
Ramil Abad Drums
See also: Demiurge
Dave Keske Guitars
Mike Watson Guitars
Jordan Kinicki Vocals


Technical info
(IMG:http://metalarea.org/images/spectrogram/2019_Nov/cf1c8937b9539009184782726b624169.png)
Input File: 03 - Oceans.mp3
Channels : 2
Sample Rate : 44100
Precision : 16-bit
Duration : 00:04:40.52 = 12370844 samples = 21038.9 CDDA sectors
File Size : 11.3M
Bit Rate : 323k
Sample Encoding: MPEG audio (layer I, II or III)
Comments :
Title=Oceans
Artist=The Vth Circle
Album=I
Tracknumber=3
Year=2019-11-16
Discnumber=1



Register


Go to the top of the page
  Insert nick Quick quote
+Quote Post
 
Start new topic
Replies (1 - 2)
post Nov 20 2019, 10:31:10
Post #2

MDMщик
**************
Group: Металариец
Posts: 6,097
Releases: 386
From: Asgaard
On Forums: 14 years 6 months
Thanks: 6011 time(s)
Saint Pierre and Miquelon


вообще не мдм, ужасная альтернатива с металкором
Go to the top of the page
  Insert nick Quick quote
+Quote Post
post Dec 10 2019, 14:43:22
Post #3

Ъ
**************
Group: Металариец
Posts: 10,097
Releases: 9
On Forums: 11 years 4 months
Thanks: 2022 time(s)
Sweden


Тут даже любители оценивать музыку по облоге не ошибутся.


Thanks:
Go to the top of the page
  Insert nick Quick quote
+Quote Post

Reply to this topicStart new topic
2 User(s) are reading this topic (2 Guests and 0 Anonymous Users)
0 Members:

 



- Lo-Fi Version Support form
Copyrights and abuse reports form
Time is now: 6th June 2020 - 17:54:36