Welcome Guest ( Log In | Register )

> И неформату есть предел.

Рэп/хип-хоп/шансон/поп удаляются. Для них есть свои порталы.

 
Reply to this topicStart new topic
> Culto Al Qondor - Electricidad (2019), Psychedelic Rock/Krautrock
post Jan 14 2020, 19:28:37
Post #1

Правь статус, ####!111
**************
Group: Металариец
Posts: 46,460
Releases: 717
On Forums: 11 years 2 hours
Thanks: 38990 time(s)
Russian Federation


(IMG:http://metalarea.org/images/audiocovers/2020_Jan/acov_tid332637_thumb.jpg)

*Artist: Culto Al Qondor
*Album: Electricidad
*Year: 2019
*Genre: Psychedelic Rock/Krautrock
*Country: Peru (IMG:http://metalarea.org/forum/style_images/flags/Peru.png)
*Format: mp3@CBR320kbps
*Size: 113MB

Tracklist:
1. E1 12:19
2. E2 12:38
3. Catedral (E3) 24:52
******************************
Total playing time: 49:49



Technical info
(IMG:http://metalarea.org/images/spectrogram/2020_Jan/f57da9b0e73b67b58031247d7756f1a2.png)
Input File: 01 - e1.mp3
Channels : 2
Sample Rate : 44100
Precision : 16-bit
Duration : 00:12:17.25 = 32512505 samples = 55293.4 CDDA sectors
File Size : 29.5M
Bit Rate : 320k
Sample Encoding: MPEG audio (layer I, II or III)
Comments :
Title=E1
Artist=Culto Al Qondor
Album=Electricidad
Tracknumber=1/3



Register


Go to the top of the page
  Insert nick Quick quote
+Quote Post
post Jan 15 2020, 07:55:09
Post #2

Правь статус, ####!111
**************
Group: Металариец
Posts: 46,460
Releases: 717
On Forums: 11 years 2 hours
Thanks: 38990 time(s)
Russian Federation


Доля краута и медитативности увеличилась.

Зело круто.


Thanks:
Go to the top of the page
  Insert nick Quick quote
+Quote Post

Reply to this topicStart new topic
1 User(s) are reading this topic (1 Guests and 0 Anonymous Users)
0 Members:

 



- Lo-Fi Version Support form
Copyrights and abuse reports form
Time is now: 1st June 2020 - 17:58:29