Welcome Guest ( Log In | Register )

> И неформату есть предел.

Рэп/хип-хоп/шансон/поп удаляются. Для них есть свои порталы.

> Livløst - Bråtebu (2020), Dungeon Synth
post Jan 15 2020, 13:41:00
Post #1

Правь статус, ####!111
**************
Group: Металариец
Posts: 20,318
Releases: 13852
From: Г.Харьков
On Forums: 7 years 8 months
Thanks: 242559 time(s)
Unknown


(IMG:http://metalarea.org/images/audiocovers/2020_Jan/acov_tid332662_thumb.jpg)

*Artist: Livløst
*Album: Bråtebu
*Year: 2020
*Genre: Dungeon Synth
*Country: Norway (IMG:http://metalarea.org/forum/style_images/flags/Norway.png)
*Format: mp3@CBR320kbps
*Size: 97MB

Tracklist:
1. Bråtebu 02:11
2. The Pentagram 05:23
3. Волк 06:56
4. Voices of Darkness 08:27
5. Dead Eyes 06:41
6. Cannibal 08:29
7. Ocean of Piss 03:50
******************************
Total playing time: 41:57



Technical info
(IMG:http://metalarea.org/images/spectrogram/2020_Jan/06a8f90cb94badc3f9fcf7851106df19.png)
Input File: 04 - Voices of Darkness.mp3
Channels : 2
Sample Rate : 44100
Precision : 16-bit
Duration : 00:08:27.30 = 22372062 samples = 38047.7 CDDA sectors
File Size : 20.5M
Bit Rate : 323k
Sample Encoding: MPEG audio (layer I, II or III)
Comments :
Title=Voices of Darkness
Artist=Livløst
Album=Bråtebu
Tracknumber=4
Year=2020-01-15
Genre=Alternative; Indie Rock; Metal
Discnumber=1



Register


Go to the top of the page
  Insert nick Quick quote
+Quote Post
 
Start new topic
Replies (1 - 4)
post Jan 15 2020, 14:17:07
Post #2

Литр
*
Group: Подсевший
Posts: 92
Releases: 0
From: Sogndal,Norge
On Forums: 11 years 11 months
Thanks: 46 time(s)
Norway


"necro black-metal from norway! "
Go to the top of the page
  Insert nick Quick quote
+Quote Post
post Jan 15 2020, 16:03:28
Post #3

Forever Underground
**************
Group: Металариец
Posts: 6,451
Releases: 0
On Forums: 4 years 9 months
Thanks: 7659 time(s)
Unknown


Necro black metal/Dungeon synth (IMG:style_emoticons/default/25.gif) https://www.metal-archives.com/bands/Livl%C3%B8st/3540457568
https://www.youtube.com/playlist?list=OLAK5...HKp5fd134a3HuA4
Go to the top of the page
  Insert nick Quick quote
+Quote Post
post Jan 15 2020, 18:11:09
Post #4

Три Литра
***
Group: Завсегдатай
Posts: 207
Releases: 1
From: г. Бор, Нижегородская обл.
On Forums: 9 years 6 months
Thanks: 387 time(s)
Russian Federation


"Придет серенький волчок..." Мда. Донельзя унылый и бестолковый вышел "dungeon synth".
Go to the top of the page
  Insert nick Quick quote
+Quote Post
post Jan 17 2020, 06:10:08
Post #5

Group: Подсевший
Posts: 21
Releases: 0
On Forums: 1 week 3 days
Thanks: 6 time(s)
Kazakhstan


Откровенно бессмысленная мешанина из типа Данж Синта с бестолковой гитарной возней под БМ
Go to the top of the page
  Insert nick Quick quote
+Quote Post

Reply to this topicStart new topic
1 User(s) are reading this topic (1 Guests and 0 Anonymous Users)
0 Members:

 



- Lo-Fi Version Support form
Copyrights and abuse reports form
Time is now: 25th January 2020 - 00:35:03