Welcome Guest ( Log In | Register )

> Releases Upload / Добавление релизов

Добавить релиз тут / Click here to add release
Рекомендованные обменники / Recommended file shares

 
Reply to this topicStart new topic
> Mors Principium Est - A Day For Redemption [single] (2020), Melodic Death Metal (D8)
post Sep 13 2020, 22:15:16
Post #1

Правь статус, ####!111
**************
Group: Металариец
Posts: 47,329
Releases: 742
On Forums: 11 years 3 months
Thanks: 40265 time(s)
Russian Federation


(IMG:http://metalarea.org/images/audiocovers/2020_Sep/acov_tid341593_thumb.jpg)

*Artist: Mors Principium Est
*Album: A Day For Redemption [single]
*Year: 2020
*Genre: Melodic Death Metal
*Country: Finland (IMG:http://metalarea.org/forum/style_images/flags/Finland.png)
*Format: mp3@CBR320kbps
*Size: 11MB

Tracklist:
1. A Day For Redemption 05:03
******************************
Total playing time: 5:03

(IMG:http://metalarea.org/images/youtube.png)

Technical info
(IMG:http://metalarea.org/images/spectrogram/2020_Sep/e739259158808be933c003a2705d46ad.png)
Input File: 01 A Day for Redemption.mp3
Channels : 2
Sample Rate : 44100
Precision : 16-bit
Duration : 00:05:03.53 = 13385805 samples = 22765 CDDA sectors
File Size : 12.1M
Bit Rate : 320k
Sample Encoding: MPEG audio (layer I, II or III)
Comments :
Title=A Day for Redemption
Artist=Mors Principium Est
Album=A Day for Redemption
Tracknumber=01/01
Year=2020
Discnumber=1/1



Register


Go to the top of the page
  Insert nick Quick quote
+Quote Post

Reply to this topicStart new topic
2 User(s) are reading this topic (2 Guests and 0 Anonymous Users)
0 Members:

 



- Lo-Fi Version Support form
Copyrights and abuse reports form
Time is now: 20th September 2020 - 01:14:39