Welcome Guest ( Log In | Register )

> И неформату есть предел.

Рэп/хип-хоп/шансон/поп удаляются. Для них есть свои порталы.

 
Reply to this topicStart new topic
> The Crypt Of Memories - Demo I [demo] (2020), Dungeon Synth
post Sep 22 2020, 10:39:45
Post #1

Два Литра
**
Group: Завсегдатай
Posts: 125
Releases: 73
On Forums: 9 years 8 months
Thanks: 3111 time(s)
Unknown


(IMG:http://metalarea.org/images/audiocovers/2020_Sep/acov_tid341833_thumb.jpg)

*Artist: The Crypt Of Memories
*Album: Demo I [demo]
*Year: 2020
*Genre: Dungeon Synth
*Country: Greece (IMG:http://metalarea.org/forum/style_images/flags/Greece.png)
*Format: mp3@CBR320kbps
*Size: 64MB

Tracklist:
1.The path to the crypt 05:23
2.Pagan ritual 03:07
3.Accused of necromancy 02:43
4.Imprisoned 04:10
5.March of the skeletons 02:31
6.Where memories go 03:40
7.Afterlife 05:24
******************************
Total playing time: 26:58



Technical info
(IMG:http://metalarea.org/images/spectrogram/2020_Sep/8c5aaf72a6e7dad7dbeeaa0aceba3be0.png)
Input File: The Crypt of Memories - Demo I - 05 March of the skeletons.mp3
Channels : 2
Sample Rate : 44100
Precision : 16-bit
Duration : 00:02:31.23 = 6669287 samples = 11342.3 CDDA sectors
File Size : 6.23M
Bit Rate : 330k
Sample Encoding: MPEG audio (layer I, II or III)
Comments :
Title=March of the skeletons
Artist=The Crypt of Memories
Album=Demo I
Tracknumber=5
Year=2020



Register


Go to the top of the page
  Insert nick Quick quote
+Quote Post

Reply to this topicStart new topic
2 User(s) are reading this topic (2 Guests and 0 Anonymous Users)
0 Members:

 



- Lo-Fi Version Support form
Copyrights and abuse reports form
Time is now: 27th November 2020 - 17:36:38