Welcome Guest ( Log In | Register )

> И неформату есть предел.

Рэп/хип-хоп/шансон/поп удаляются. Для них есть свои порталы.

 
Reply to this topicStart new topic
> Aos Si - Vol 1 (2020), Neofolk
post Oct 26 2020, 16:17:26
Post #1

Правь статус, ####!111
**************
Group: Металариец
Posts: 4,759
Releases: 1449
From: Brazil
On Forums: 8 years 9 months
Thanks: 52876 time(s)
Brazil


(IMG:http://metalarea.org/images/audiocovers/2020_Oct/acov_tid342985_thumb.jpg)

*Artist: Aos Si
*Album: Vol 1
*Year: 2020
*Genre: Neofolk
*Country: Canada (IMG:http://metalarea.org/forum/style_images/flags/Canada.png)
*Format: mp3@VBR248kbps
*Size: 47MB

Tracklist:
A1. Come Away
A2. Oratio Draconis
A3. Night Alone
A4. Anahasis
B1. Katahasis
B2. Dreamweaver
B3. Untitled
******************************
Total playing time: 25:49



Extended info
Les Fleurs du Mal Productions


Technical info
(IMG:http://metalarea.org/images/spectrogram/2020_Oct/48ef5efcae41e5010a2c455b74a9488b.png)
Input File: 02 Oratio Draconis.mp3
Channels : 2
Sample Rate : 44100
Precision : 16-bit
Duration : 00:03:32.27 = 9361151 samples = 15920.3 CDDA sectors
File Size : 6.84M
Bit Rate : 258k
Sample Encoding: MPEG audio (layer I, II or III)
Comments :
Title=Oratio Draconis
Artist=AoS Si
Album=Vol 1
Tracknumber=02/7
Year=2020
Genre=Neo-Folk/Martial Industrial
Discnumber=1/1



Register


Go to the top of the page
  Insert nick Quick quote
+Quote Post

Reply to this topicStart new topic
1 User(s) are reading this topic (1 Guests and 0 Anonymous Users)
0 Members:

 



- Lo-Fi Version Support form
Copyrights and abuse reports form
Time is now: 28th November 2020 - 14:50:42