*Artist: Aos Si
*Album: Vol 1
*Year: 2020
*Genre: Neofolk
*Country: Canada
*Format: mp3@VBR248kbps
*Size: 47MB

Tracklist:
A1. Come Away
A2. Oratio Draconis
A3. Night Alone
A4. Anahasis
B1. Katahasis
B2. Dreamweaver
B3. Untitled
******************************
Total playing time: 25:49



Extended info
Les Fleurs du Mal Productions


Technical info

Input File: 02 Oratio Draconis.mp3
Channels : 2
Sample Rate : 44100
Precision : 16-bit
Duration : 00:03:32.27 = 9361151 samples = 15920.3 CDDA sectors
File Size : 6.84M
Bit Rate : 258k
Sample Encoding: MPEG audio (layer I, II or III)
Comments :
Title=Oratio Draconis
Artist=AoS Si
Album=Vol 1
Tracknumber=02/7
Year=2020
Genre=Neo-Folk/Martial Industrial
Discnumber=1/1



[ Hidden Text ]