Help - Search - Members - Calendar
Full Version: Pissboiler - In The Lair Of Lucid Nightmares (2017)
Metal Area - Extreme Music Portal > Releases Area / Релизы > Archive > Low Bitrate Archive (read only)
Necrokilldozer


*Artist: Pissboiler
*Album: In The Lair Of Lucid Nightmares
*Year: 2017
*Genre: Drone/Doom Metal
*Country: Sweden
*Format: mp3@CBR128kbps
*Size: 44MB

Tracklist:
1. Ruins of the Past 17:45
2. Stealth 02:59
3. Pretend It Will End 10:02
4. Cutters 15:21
******************************
Total playing time: 46:07



Extended info
Line - up:

Pontus Ottosson - Guitars (Snailking)
Karl Jonas Wijk - Drums, Guitars (Droneologist, ex-Snailking)
LG - Vocals (lead), Bass



Technical info

Input File: 03. Pretend It Will End.MP3
Channels : 2
Sample Rate : 44100
Precision : 16-bit
Duration : 00:10:02.91 = 26588243 samples = 45218.1 CDDA sectors
File Size : 9.65M
Bit Rate : 128k
Sample Encoding: MPEG audio (layer I, II or III)
Comments :
Title=Pretend It Will End
Artist=Pissboiler
Album=In The Lair Of Lucid Nightmares
Tracknumber=3
Year=2017
Genre=Drone / Doom Metal



[ Hidden Text ]
Hajasz
In 320 kbps please.
This is a "lo-fi" version of our main content. To view the full version with more information, formatting and images, please click here.
Invision Power Board © 2001-2019 Invision Power Services, Inc.