Help - Search - Members - Calendar
Full Version: Grafvitnir - Keys To The Mysteries Beyond (2017)
Metal Area - Extreme Music Portal > Releases Area / Релизы > Archive > Low Bitrate Archive (read only)
craP_cillA


*Artist: Grafvitnir
*Album: Keys To The Mysteries Beyond
*Year: 2017
*Genre: Melodic Black Metal
*Country: Sweden
*Format: mp3@ABR175kbps
*Size: 52MB

Tracklist:
01. Nidhögg 05:42
02. Key To The Mysteries Beyond 04:26
03. Vargavinter 05:38
04. Crossing The Abyss 01:38
05. Eternity's Glistening Black 04:04
06. Journey Into Storms 01:41
07. Unleash The Storm Of Nothingness 03:53
08. Eye Of Lucifer 05:28
09. Whispers Of The Primordial Sea 04:23
10. Glimpses Of The Unseeable 05:01
******************************
Total playing time: 41:55

Extended info
Password: metalarea.org

Enjoy!
smile1.gif


Technical info

Input File: 01-Nidhoegg.mp3
Channels : 2
Sample Rate : 44100
Precision : 16-bit
Duration : 00:05:42.86 = 15119994 samples = 25714.3 CDDA sectors
File Size : 7.51M
Bit Rate : 175k
Sample Encoding: MPEG audio (layer I, II or III)
Comments :
Title=Nidhögg
Artist=Grafvitnir
Album=Keys To The Mysteries Beyond
Tracknumber=1/10
Year=2017
Genre=Black Metal



[ Hidden Text ]
pfk505
Main link still works but couldn't open the archive for some reason.
[ Hidden Text ]
craP_cillA
no problems here! downloaded and unpacked it three times..

make sure you're using the latest winrar version (v5.50)
legionz
What's is the password for the archive?
craP_cillA
QUOTE(legionz @ Jan 5 2018, 16:23:58) *
What's is the password for the archive?



startpost->extended info.
This is a "lo-fi" version of our main content. To view the full version with more information, formatting and images, please click here.
Invision Power Board © 2001-2019 Invision Power Services, Inc.