Help - Search - Members - Calendar
Full Version: Abusive - Sequences Of Fear (2017)
Metal Area - Extreme Music Portal > Releases Area / Релизы > Archive > Low Bitrate Archive (read only)
komhs


*Artist: Abusive
*Album: Sequences Of Fear
*Year: 2017
*Genre: Thrash Metal
*Country: Greece
*Format: mp3@CBR192kbps
*Size: 56MB

Tracklist:
1. You Only Die Once 01:23
2. My Worst Enemy 02:39
3. Insecure Days 03:36
4. Deeper in the Wound 03:08
5. Living Dead 05:06
6. Insanity of War 03:32
7. Organic 04:30
8. Rejected 03:22
9. Sequences of Fear 03:29
10. Mind Control 04:32
******************************
Total playing time: 35:17

Technical info

Input File: 1.You Only Die Once.mp3
Channels : 2
Sample Rate : 44100
Precision : 16-bit
Duration : 00:01:23.93 = 3701489 samples = 6295.05 CDDA sectors
File Size : 2.35M
Bit Rate : 224k
Sample Encoding: MPEG audio (layer I, II or III)



[ Hidden Text ]
beast666
This is a "lo-fi" version of our main content. To view the full version with more information, formatting and images, please click here.
Invision Power Board © 2001-2019 Invision Power Services, Inc.