Help - Search - Members - Calendar
Full Version: Mormânt De Snagov - Depths Below Space And Existence (2018)
Metal Area - Extreme Music Portal > Releases Area / Релизы > Archive > Low Bitrate Archive (read only)
judaz


*Artist: Mormânt De Snagov
*Album: Depths Below Space And Existence
*Year: 2018
*Genre: Black Metal
*Country: Finland
*Format: mp3@CBR128kbps
*Size: 42MB

Tracklist:
1. Mentor Deceived
2. Never Speak Aloud
3. Resist
4. Stories Untold
5. Battle Neverending
6. You're Next
7. Writhe Infinite
8. The Roots Of Grief
******************************
Total playing time: 45:27

Technical info

Input File: 01. Mentor Deceived.MP3
Channels : 2
Sample Rate : 44100
Precision : 16-bit
Duration : 00:01:39.28 = 4378424 samples = 7446.3 CDDA sectors
File Size : 1.59M
Bit Rate : 128k
Sample Encoding: MPEG audio (layer I, II or III)
Comments :
Title=Mentor Deceived
Artist=MormГўnt De Snagov
Album=Depths Below Space And Existence
Tracknumber=1
Year=2018



[ Hidden Text ]
Orkkh
образец творчества
This is a "lo-fi" version of our main content. To view the full version with more information, formatting and images, please click here.
Invision Power Board © 2001-2019 Invision Power Services, Inc.