*Artist: Kill Athena
*Album: Ravaging All Within
*Year: 2018
*Genre: Technical Death Metal
*Country: Indonesia
*Format: mp3@CBR128kbps
*Size: 34MB

Tracklist:
1. Glorious Begins 00:35 instrumental
2. Disaster 03:21
3. Concussion 03:08
4. Into Havoc 03:09
5. The (False) Salvation 03:58
6. Eradication Doom 04:54
7. Lecture Deceit 03:30
8. Sovereign 04:25
9. Artificial Perspectives 07:01
10. Ravaging All Within 01:57 instrumental
******************************
Total playing time: 35:58



Extended info
Line - up:

Teguh - Guitars (ex-Baby Frog)
Nuris - Drums
Ridho - Guitars
Lingga - Bass
Yogga - Vocals (Anal Torture, Fetal Bleeding, Gelgamesh, Nithael, Injury Deepen (live))



Technical info

Input File: 04. Into Havoc.mp3
Channels : 2
Sample Rate : 44100
Precision : 16-bit
Duration : 00:03:09.47 = 8355495 samples = 14210 CDDA sectors
File Size : 3.03M
Bit Rate : 128k
Sample Encoding: MPEG audio (layer I, II or III)
Comments :
Title=Into Havoc
Artist=Kill Athena
Album=Ravaging All Within
Tracknumber=4
Year=2018
Genre=Technical Death Metal



[ Hidden Text ]