Help - Search - Members - Calendar
Full Version: Rotten Light - III: Downfall To Black Axis And Liturgy (2018)
Metal Area - Extreme Music Portal > Releases Area / Релизы > Archive
Necrokilldozer


*Artist: Rotten Light
*Album: III: Downfall To Black Axis And Liturgy
*Year: 2018
*Genre: Depressive Black Metal
*Country: Spain
*Format: mp3@CBR320kbps
*Size: 164MB

Tracklist:
1. Last March of the Broken Ones 06:04
2. Enochian Hate Plage 04:48
3. Gates of Perdition 03:49
4. Pointless Selfdestructing Behavior Chains 04:45
5. Beneath the Black Axis of Our Flesh 06:56
6. Shards of Sanity 04:18
7. Truth Hurts More Than a Lie 03:43
8. The Blackest Coma 04:47
9. Plummet Down in Defilement 05:15
10. Philosophical Nonsense at the Edge of Catharsis 07:13
11. The Darkness Beckoning 06:25
12. Otra Noche De Mierda En Esta Puta Ciudad 09:03
13. The Beginning of the Liturgy of Death 01:47
******************************
Total playing time: 1:08:53



Extended info
Line - up:

Silence - Vocals, Guitars, Bass, Drums, Keyboards, Saxophone (Abaddon's Abyss, Shadow Frost, Suicidal Psychosis, Theslecre, Traumatic Memories, Occasum Solis, Cyanide Atmosphera, Doomvoid VIIV, Grimmist, Konrad, Mae'r Danae Sŵn, Nocturnal Graveland, The Eternal Chain, Theslecre, ex-2003 VB16, ex-Life Is My Prison... Death Is the Escape, ex-Silence in the Woods)
Erebus - Guitar, Keyboards (The Eternal Chain)



Technical info

Input File: 02. Enochian Hate Plague.mp3
Channels : 2
Sample Rate : 48000
Precision : 16-bit
Duration : 00:04:48.36 = 13841424 samples ~ 21627.2 CDDA sectors
File Size : 11.6M
Bit Rate : 322k
Sample Encoding: MPEG audio (layer I, II or III)
Comments :
Title=Enochian Hate Plague
Artist=Rotten Light
Album=III: Downfall to Black Axis and Liturgy
Tracknumber=2
Year=2018
Genre=Depressive Black Metal



[ Hidden Text ]
SSBandera
материал как минимум слушабельный, или как максимум.
хотя депрой тут мало где попахивает. опять пост. половина треков - лишние.
This is a "lo-fi" version of our main content. To view the full version with more information, formatting and images, please click here.
Invision Power Board © 2001-2018 Invision Power Services, Inc.