Help - Search - Members - Calendar
Full Version: Dogtor - Attack On All Fronts! The Best Of Dogtor (2019)
Metal Area - Extreme Music Portal > Releases Area / Релизы > Archive
necroscum


*Artist: Dogtor
*Album: Attack On All Fronts! The Best Of Dogtor
*Year: 2019
*Genre: Thrash Metal
*Country: Finland
*Format: mp3@CBR320kbps
*Size: 88MB

Tracklist:
01. Air Raid
02. Motor Metal Mayhem
03. Turbocharger
04. Hellhound
05. Snake in a Suit
06. Horseman
07. The Knife
08. Can't Fool Me
09. Bad Move
10. C'mon Go Go!
11. Camaro
12. Ride Forever (Ride for Life)
******************************
Total playing time: 37:02

Technical info

Input File: 02. Motor Metal Mayhem.mp3
Channels : 2
Sample Rate : 44100
Precision : 16-bit
Duration : 00:02:45.60 = 7303048 samples = 12420.1 CDDA sectors
File Size : 6.90M
Bit Rate : 333k
Sample Encoding: MPEG audio (layer I, II or III)
Comments :
Title=Motor Metal Mayhem
Artist=Dogtor
Album=Attack on All Fronts! the Best of Dogtor
Tracknumber=2/12
Year=2019



[ Hidden Text ]
AHBAnep
Dogtor
Helsinki, Finland


Shellshokk (2016):
Motor Metal Mayhem (2013): https://www.youtube.com/watch?v=LRYqBw9Zf6A...-GPwlvb0uxvmxXb
Dogtor's Order (2012): https://www.youtube.com/watch?v=GHuBJuqFw0A...ktW6BAA237oM-DG
EP Fire At Will (2010): https://www.youtube.com/watch?v=7MsFmzF2tAA...3wByVPhb3HbLbRF
Никаким трэшем тут не пахнет.
metala
Motorhead-influenced stuff; pleasant feelgood power/speed metal with not much thrash present
Andrew
ЦИТАТА(metala @ Mar 15 2019, 16:53:30) *
with not much thrash present

dooo.gif Как то без треша здесь!
This is a "lo-fi" version of our main content. To view the full version with more information, formatting and images, please click here.
Invision Power Board © 2001-2019 Invision Power Services, Inc.