Help - Search - Members - Calendar
Full Version: Hemptress - Alchemy (2019)
Metal Area - Extreme Music Portal > Releases Area / Релизы > Archive
necroscum


*Artist: Hemptress
*Album: Alchemy
*Year: 2019
*Genre: Stoner/Doom Metal
*Country: Canada
*Format: mp3@CBR320kbps
*Size: 118MB

Tracklist:
01. I Hear You Howlin 06:10
02. Moonlight Gunnin 06:13
03. Alabaster 04:15
04. When the Sun Goes Down 04:38
05. Mind Corruptor 07:46
06. Electric Fire 04:40
07. Maniac 06:14
08. Alchemy 11:38
******************************
Total playing time: 51:34





Technical info

Input File: 02 Moonlight Gunnin.mp3
Channels : 2
Sample Rate : 44100
Precision : 16-bit
Duration : 00:06:13.08 = 16452740 samples = 27980.9 CDDA sectors
File Size : 14.9M
Bit Rate : 320k
Sample Encoding: MPEG audio (layer I, II or III)
Comments :
Title=Moonlight Gunnin
Artist=Hemptress
Album=Alchemy
Tracknumber=2
Year=2019
Genre=Metal



[ Hidden Text ]
Leshiy666
Отличный бодрячковый стонер m0114.gif metaler.gif 20.gif

ЦИТАТА
Hemptress plays sludged out stoner rock n roll and sounds like a drunken and danked-up Santa on Christmas Eve with a THC-stained hemp-sack full of aural goodies distilled from bands such as Sleep, Electric Wizard, Eyehategod, Black Sabbath, All Them Witches, Asteroid, YOB, Goya, Clutch, Truckfighters and Budgie.
This is a "lo-fi" version of our main content. To view the full version with more information, formatting and images, please click here.
Invision Power Board © 2001-2020 Invision Power Services, Inc.