Printable Version of Topic

Click here to view this topic in its original format

Metal Area - Extreme Music Portal _ New Releases _ The Long Cold Dark - There Are No Answers (2021)

Posted by: Samaritianin Nov 25 2021, 13:50:33

https://metalarea.org/images/audiocovers/2021_Nov/acov_tid358792.jpg

*Artist: The Long Cold Dark
*Album: There Are No Answers
*Year: 2021
*Genre: Thrash/Groove Metal
*Country: United States
*Format: mp3@CBR320kbps
*Size: 90MB

Tracklist:
1. There Are No Answers
2. What We Should Fear
3. Tunnel Vision
4. Guns Guns Guns
5. Demystified
6. Inheritance
7. No Way Home
******************************
Total playing time: 39:34

https://thelongcolddark.bandcamp.com/album/there-are-no-answers
https://www.facebook.com/thelongcolddark

Extended info
Adam Malone Bass
Jason Oberg Guitars, Vocals (2008-present)
Drew Celestino Vocals, Guitars (2008-present)
Collin Folger Drums (2014-present)


Technical info

Input File: 07 - No Way Home.mp3
Channels : 2
Sample Rate : 44100
Precision : 16-bit
Duration : 00:05:35.09 = 14777513 samples = 25131.8 CDDA sectors
File Size : 13.5M
Bit Rate : 323k
Sample Encoding: MPEG audio (layer I, II or III)
Comments :
Title=No Way Home
Artist=The Long Cold Dark
Album=There Are No Answers
Tracknumber=7/7
Year=2021



[ Hidden Text ]

Powered by Invision Power Board
© Invision Power Services