Printable Version of Topic

Click here to view this topic in its original format

Metal Area - Extreme Music Portal _ New Releases _ Atonement - Where The Light Is Devouring By Darkness (2022)

Posted by: kefka May 14 2022, 07:53:15

https://metalarea.org/images/audiocovers/2022_May/acov_tid364774.jpg

*Artist: Atonement
*Album: Where The Light Is Devouring By Darkness
*Year: 2022
*Genre: Death/Black Metal
*Country: Poland
*Format: mp3@CBR320kbps
*Size: 73MB

Tracklist:
1.The Beginning of Ritual 01:29
2.Mirdautas Vras 04:21
3.Mor Gash 04:37
4.Ushur Daihir 03:17
5.Bells of Doom 04:51
6.The Choir Of The Undead 04:32
7.Chalice Of Misterious Whispers 04:16
8.Don't Follow The Lights 03:01
9.The End Of Hope 01:16
******************************
Total playing time: 31:40

https://atonementbandpoland.bandcamp.com/album/where-the-light-is-devouring-by-darkness

Technical info

Input File: 04 - Ushur Daihir.mp3
Channels : 2
Sample Rate : 44100
Precision : 16-bit
Duration : 00:03:17.47 = 8708559 samples = 14810.5 CDDA sectors
File Size : 8.35M
Bit Rate : 338k
Sample Encoding: MPEG audio (layer I, II or III)
Comments :
Title=Ushur Daihir
Artist=Atonement
Album=Where the Light Is Devouring by Darkness
Tracknumber=04
Year=2022
Genre=Black/Death Metal



[ Hidden Text ]

Posted by: dm666 May 21 2022, 14:11:37

Lossless: FLAC (tracks)
[ Hidden Text ]

Powered by Invision Power Board
© Invision Power Services