Printable Version of Topic

Click here to view this topic in its original format

Metal Area - Extreme Music Portal _ New Releases _ Møremyrk - MMXXII Demos [demo] (2022)

Posted by: sacrut May 14 2022, 08:04:32

https://metalarea.org/images/audiocovers/2022_May/acov_tid364775.jpg

*Artist: Møremyrk
*Album: MMXXII Demos [demo]
*Year: 2022
*Genre: Death Metal
*Country: Indonesia
*Format: mp3@CBR320kbps
*Size: 41MB

Tracklist:
1. Void Serenity 06:21
2. Ethereal Light of Corrupted Realm 05:24
3. Fumus Swamps 06:10
******************************
Total playing time: 17:55

https://moremyrkdoom.bandcamp.com/releases

Technical info

Input File: 02. Fumus Swamps.mp3
Channels : 2
Sample Rate : 48000
Precision : 16-bit
Duration : 00:06:08.02 = 17664912 samples ~ 27601.4 CDDA sectors
File Size : 14.7M
Bit Rate : 320k
Sample Encoding: MPEG audio (layer I, II or III)
Comments :
Title=Fumus Swamps
Artist=Møremyrk
Album=MMXXII Demos
Tracknumber=02/03
Year=2022
Genre=22



[ Hidden Text ]

Powered by Invision Power Board
© Invision Power Services