Printable Version of Topic

Click here to view this topic in its original format

Metal Area - Extreme Music Portal _ New Releases _ First Degree Murder - Anomalous Hallucinations (2022)

Posted by: necroscum Jun 23 2022, 14:12:51

https://metalarea.org/images/audiocovers/2022_Jun/acov_tid366386.jpg

*Artist: First Degree Murder
*Album: Anomalous Hallucinations
*Year: 2022
*Genre: Brutal Death Metal
*Country: Chile
*Format: mp3@CBR320kbps
*Size: 47MB

Tracklist:
01. Anomalous Hallucinations 02:23
02. Oppositional Defiant 01:11
03. Generalized Disorder 02:11
04. First Degree Murder 02:23
05. The Virgin's Punishment 02:17
06. Dissolved in Acid 02:29
07. Congenital Disability 01:55
08. Kidnapped and Abused 01:57
09. Forced Intercourse 02:17
10. Unworthy Creature 01:02
******************************
Total playing time: 20:05

https://www.facebook.com/FDMBDM
https://www.instagram.com/fdmband_official/
https://www.youtube.com/watch?v=t0-LOSDlnWM

Technical info

Input File: 02. Oppositional Defiant.mp3
Channels : 2
Sample Rate : 44100
Precision : 16-bit
Duration : 00:01:11.50 = 3153326 samples = 5362.8 CDDA sectors
File Size : 2.96M
Bit Rate : 331k
Sample Encoding: MPEG audio (layer I, II or III)
Comments :
Title=Oppositional Defiant
Artist=First Degree Murder
Album=Anomalous Hallucinations
Tracknumber=2
Year=2022
Discnumber=1/1



[ Hidden Text ]

Posted by: Anarhist815 Jun 24 2022, 00:23:33

Этот альбом надо в топ самого размазанного недометалла! Агрессия, мощная атака, плитообразный саунд - не, чуваки не слышали об этом, они начиная с 1986 года сидели в бункере!

Posted by: xax Jun 24 2022, 05:27:31

Хороший альбом, мне понравился. Ускоренный Esophagus типа

Posted by: AHBAnep Jun 24 2022, 06:14:53

https://realityfade.bandcamp.com/album/anomalous-hallucinations

Posted by: oathzine Jun 24 2022, 10:03:23

Flac

[ Hidden Text ]

Powered by Invision Power Board
© Invision Power Services