Printable Version of Topic

Click here to view this topic in its original format

Metal Area - Extreme Music Portal _ New Releases _ Evoked - Immoral Arts [ep] (2024)

Posted by: Samaritianin May 15 2024, 15:31:00

https://metalarea.org/images/audiocovers/2024_May/acov_tid397123.jpg

*Artist: Evoked
*Album: Immoral Arts [ep]
*Year: 2024
*Genre: Old School Death Metal
*Country: Germany
*Format: mp3@CBR320kbps
*Size: 50MB

Tracklist:
1. Immoral Arts 03:56
2. From The Distance 04:00
3. A Nameless Grave 04:11
4. Behind The Eyes 05:10
5. Blunt Force Trauma 03:20
******************************
Total playing time: 20:37

https://fda-records.bandcamp.com/album/immoral-arts
https://www.facebook.com/evokedbydeath

Extended info
Artilleratör Drums (2013-present)
See also: ex-Beer Pressure, ex-Genocide, ex-Obsessör, ex-Wilt (live)
Bonesaw Guitars, Vocals (2013-present)
See also: ex-Mania, Razor's Edge
Gravecrawler Bass (2023-present)
See also: Death by Exile, ex-Brutal Sphincter, ex-Vigore


Technical info

Input File: 04. Behind the Eyes.mp3
Channels : 2
Sample Rate : 44100
Precision : 16-bit
Duration : 00:05:11.09 = 13718893 samples = 23331.5 CDDA sectors
File Size : 12.9M
Bit Rate : 331k
Sample Encoding: MPEG audio (layer I, II or III)
Comments :
Title=Behind the Eyes
Artist=Evoked
Album=Immoral Arts
Tracknumber=4
Year=2024
Genre=OSDM



[ Hidden Text ]

Posted by: Samaritianin May 15 2024, 17:13:25

FLAC (Tracks) 183 mb
[ Hidden Text ]

Posted by: Andrew May 16 2024, 20:20:47

Очень приятная вещица. 20.gif

Posted by: mightynorth May 17 2024, 14:45:35

Мне понравился. Их дебютник не зашел а этот даже очень.

Powered by Invision Power Board
© Invision Power Services