Printable Version of Topic

Click here to view this topic in its original format

Metal Area - Extreme Music Portal _ Unformat R: _ John Zorn - Chaos Magick (2021)

Posted by: vosmidesijatye May 8 2021, 21:51:40

http://metalarea.org/images/audiocovers/2021_May/acov_tid350625.jpg

*Artist: John Zorn
*Album: Chaos Magick
*Year: 2021
*Genre: Avant-Garde/Contemporary Jazz
*Country: United States
*Format: mp3@CBR320kbps
*Size: 90MB

Tracklist:
1. The Initiate 03:50
2. Corinthians I 05:24
3. The Servitor 05:45
4. St. Augustine 06:58
5. Egregore 04:36
6. Crossing The Abyss 03:50
7. Liber 15 02:48
8. Imp Of The Perverse 02:52
9. Corinthians II 03:43
******************************
Total playing time: 39:46

Technical info

Input File: 01 - The Initiate.mp3
Channels : 2
Sample Rate : 44100
Precision : 16-bit
Duration : 00:03:50.13 = 10148645 samples = 17259.6 CDDA sectors
File Size : 9.22M
Bit Rate : 321k
Sample Encoding: MPEG audio (layer I, II or III)
Comments :
Title=The Initiate
Artist=John Zorn
Album=Chaos Magick
Tracknumber=1
Year=2021
Genre=Jazz
Discnumber=1



[ Hidden Text ]

Posted by: Kvlt May 13 2021, 17:28:19

No pre-listening possibilities in the net...that's how to sell an album. smile1.gif

Posted by: xax May 13 2021, 18:13:35

очень круто звучит, тут Зорн великолепен!

Posted by: Daecadance Jul 8 2021, 14:00:53

кто-нибудь перезальет?

Posted by: Qliphoth Jul 8 2021, 14:11:48

Уважаемо. Интересный альбом, как и всегда.

Powered by Invision Power Board
© Invision Power Services