Welcome Guest ( Log In | Register )

Объявления

* gmail.com упорно продолжает считать почту с нас "unsolicited" и отбивает в том числе и письма активации, поэтому просьба использовать альтернативные почтовые ящики.
------------
* gmail.com continues reject all mail from us as "unsolicited" (activation mails too) therefore please use alternate mail servers.
> Musashi - Yamato (2000), Progressive/Folk Metal
post Oct 25 2012, 18:40:56
Post #1
BAN
Banned till
Dec 8 3821, 23:15:49



(IMG:http://metalarea.org/images/audiocovers/2012_Oct/acov_tid185512_thumb.jpg)

*Artist: Musashi
*Album: Yamato
*Year: 2000
*Genre: Progressive/Folk Metal
*Country: Japan (IMG:http://metalarea.org/forum/style_images/flags/Japan.png)
*Format: mp3@CBR320kbps
*Size: 145MB

Tracklist:
01. Akatsuki 05:03
02. Yagyu-Gaiden 05:14
03. Kuroi-Tsuki 04:57
04. Seiya 06:30
05. Hishou 03:44
06. Uneri 08:02
07. Akebono 08:02
08. Ryusei 04:35
09. Kurenai 05:09
10. Yamato Part 1 03:21
11. Yamato Part 2 03:39
12. Yamato Part 3 02:57
13. Yamato Part 4 03:54
******************************
Total playing time: 1:05:07

Extended info


(IMG:http://metalarea.org/images/spectrogram/2012_Oct/6c176f6061c755a727d93e02af0096b5.png)
Input File: 05 - Hishou.mp3
Channels : 2
Sample Rate : 44100
Precision : 16-bit
Duration : 00:03:44.24 = 9888896 samples = 16817.9 CDDA sectors
File Size : 10.6M
Bit Rate : 377k
Sample Encoding: MPEG audio (layer I, II or III)
Comments :
Title=Hishou
Artist=MUSASHI
Album=Yamato
Tracknumber=5
Year=2000



Register


Go to the top of the page
  Insert nick Quick quote
+Quote Post
 
Start new topic
Replies (1 - 1)
post May 1 2020, 15:22:41
Post #2

?
**********
Group: Металариец
Posts: 1,061
Releases: 9
From: Ставрополь
On Forums: 14 years 11 months
Thanks: 627 time(s)
Russian Federation


Обновил 320

Register


Thanks:
Go to the top of the page
  Insert nick Quick quote
+Quote Post

Reply to this topicStart new topic
1 User(s) are reading this topic (1 Guests and 0 Anonymous Users)
0 Members:

 



- Lo-Fi Version Support form
Copyrights and abuse reports form
Time is now: 20th June 2024 - 08:57:47