Welcome Guest ( Log In | Register )

> Suffering Hour - Forseeing Exemptions To A Dismal Beyond (2014), Progressive Black/Death/Thrash Metal
post Jan 20 2014, 15:41:43
Post #1

Аннигилятор пивА
Group Icon
Group: V.I.P
Posts: 52,383
Releases: 16545
From: Koenigsberg - TILZIT
On Forums: 16 years 3 months
Thanks: 369890 time(s)
Russian Federation


(IMG:http://metalarea.org/images/audiocovers/2014_Jan/acov_tid217039_thumb.jpg)

*Artist: Suffering Hour
*Album: Forseeing Exemptions To A Dismal Beyond
*Year: 2014
*Genre: Progressive Black/Death/Thrash Metal
*Country: United States (IMG:http://metalarea.org/forum/style_images/flags/United%20States.png)
*Format: mp3@CBR320kbps
*Size: 71MB

Tracklist:
1. Truths of the Unknown 04:58
2. Prog Thrashing Death 03:39
3. A Dismal Beyond 05:57
4. Infected Skull 03:08
5. Enthralled in Lunacy Abyss 08:35
6. Compassion Dies 02:38
******************************
Total playing time: 28:55




Extended info
Злобная олдскульщина с прог прибамбасами. Красотень.

Dylan Haseltine - Vocals/Bass
Josh Raiken - Guitars
Jason Oberuc - Drums

Suffering Hour is a proggy black/thrash band based in the Twin Cities.
"Some of the band’s biggest influences are Absu, Unleashed, The Chasm, Inquisition, Kreator, Deathspell Omega, King Crimson, and Merciless. The band has released a couple of demos in the past, but is now excited to be releasing their first official release on Tridroid Records."


Technical info
(IMG:http://metalarea.org/images/spectrogram/2014_Jan/8d8bf472614dc9df63fd6de1f62f8258.png)
Input File: 02 Prog Thrashing Death.mp3
Channels : 2
Sample Rate : 44100
Precision : 16-bit
Duration : 00:03:39.64 = 9685904 samples = 16472.6 CDDA sectors
File Size : 8.97M
Bit Rate : 327k
Sample Encoding: MPEG audio (layer I, II or III)
Comments :
Title=Prog Thrashing Death
Artist=Suffering Hour
Album=Forseeing Exemptions To a Dismal Beyond
Tracknumber=2
Year=2014



Register


Go to the top of the page
  Insert nick Quick quote
+Quote Post
 
Start new topic
Replies (1 - 6)
post Jun 22 2017, 08:37:23
Post #2

Русь Понад Усе!
**************
Group: Металариец
Posts: 4,372
Releases: 15
From: Украина
On Forums: 15 years 3 weeks
Thanks: 1810 time(s)
Ukraine


А можно перезалить на другой файлообменник, (IMG:style_emoticons/default/pray.gif)
Go to the top of the page
  Insert nick Quick quote
+Quote Post
post Jul 29 2017, 14:52:21
Post #3

Crush! Kill! Destroy!
**************
Group: Металариец
Posts: 5,760
Releases: 15
From: Kaliningrad
On Forums: 14 years 10 months
Thanks: 5441 time(s)
Russian Federation


Перезалить бы, а то второй альбом впер не по дэтски, хочу этот отслушать
Go to the top of the page
  Insert nick Quick quote
+Quote Post
post Aug 16 2017, 12:55:10
Post #4

Group: Подсевший
Posts: 18
Releases: 0
On Forums: 8 years 4 months
Thanks: 2 time(s)
South Africa


Can someone please re-upload this. (IMG:style_emoticons/default/pray.gif)
Go to the top of the page
  Insert nick Quick quote
+Quote Post
post Dec 2 2017, 18:05:02
Post #5

Пять Литров
*****
Group: Металариец
Posts: 478
Releases: 1
On Forums: 9 years 1 month
Thanks: 1120 time(s)
Unknown


from the web
Register


Go to the top of the page
  Insert nick Quick quote
+Quote Post
post Feb 16 2021, 10:00:14
Post #6

Правь статус, ####!111
**************
Group: Металариец
Posts: 4,181
Releases: 1
From: Рейх
On Forums: 16 years 1 month
Thanks: 1010 time(s)
Ukraine


обновить
Go to the top of the page
  Insert nick Quick quote
+Quote Post
post Feb 17 2021, 05:31:14
Post #7

Правь статус, ####!111
Group Icon
Group: S-moderation team
Posts: 22,058
Releases: 1443
On Forums: 11 years 6 months
Thanks: 112913 time(s)
Unknown


Register


Go to the top of the page
  Insert nick Quick quote
+Quote Post

Reply to this topicStart new topic
1 User(s) are reading this topic (1 Guests and 0 Anonymous Users)
0 Members:

 



- Lo-Fi Version Support form
Copyrights and abuse reports form
Time is now: 25th September 2022 - 11:30:09