Welcome Guest ( Log In | Register )

Объявления

* gmail.com упорно продолжает считать почту с нас "unsolicited" и отбивает в том числе и письма активации, поэтому просьба использовать альтернативные почтовые ящики.
------------
* gmail.com continues reject all mail from us as "unsolicited" (activation mails too) therefore please use alternate mail servers.
> Svrm - При смерти [demo] (2016), Black Metal
post Sep 16 2016, 10:29:57
Post #1

Правь статус, ####!111
**************
Group: Металариец
Posts: 2,755
Releases: 2267
From: Praha
On Forums: 10 years 2 months
Thanks: 63974 time(s)
Czech Republic


(IMG:http://metalarea.org/images/audiocovers/2016_Sep/acov_tid274372_thumb.jpg)

*Artist: Svrm
*Album: При смерти [demo]
*Year: 2016
*Genre: Black Metal
*Country: Ukraine (IMG:http://metalarea.org/forum/style_images/flags/Ukraine.png)
*Format: mp3@CBR320kbps
*Size: 15MB

Tracklist:
1. Экуменополис 03:15
2. Рабство 03:01
******************************
Total playing time: 6:16



Extended info
Highly recommended!


Technical info
(IMG:http://metalarea.org/images/spectrogram/2016_Sep/afd0f404400d04e52d42014422dcb6c1.png)
Input File: 01. Экуменополис.mp3
Channels : 2
Sample Rate : 44100
Precision : 16-bit
Duration : 00:03:15.18 = 8607394 samples = 14638.4 CDDA sectors
File Size : 7.96M
Bit Rate : 326k
Sample Encoding: MPEG audio (layer I, II or III)
Comments :
Title=Экуменополис
Artist=svrm
Album=При смерти
Tracknumber=01/02
Year=2016
Genre=Black Metal



Register


Go to the top of the page
  Insert nick Quick quote
+Quote Post
 
Start new topic
Replies (1 - 2)
post Sep 16 2016, 14:48:04
Post #2

Русь Понад Усе!
**************
Group: Металариец
Posts: 4,383
Releases: 15
From: Украина
On Forums: 16 years 9 months
Thanks: 1880 time(s)
Ukraine


Кто такие почему не знаю (IMG:style_emoticons/default/crazy.gif)
Go to the top of the page
  Insert nick Quick quote
+Quote Post
post Jan 5 2018, 11:28:33
Post #3

True Holocaust
*****
Group: Металариец
Posts: 430
Releases: 2
From: Рідна Ненька Україна
On Forums: 14 years 5 months
Thanks: 847 time(s)
Ukraine


еле нашел
Register


Go to the top of the page
  Insert nick Quick quote
+Quote Post

Reply to this topicStart new topic
2 User(s) are reading this topic (2 Guests and 0 Anonymous Users)
0 Members:

 



- Lo-Fi Version Support form
Copyrights and abuse reports form
Time is now: 24th June 2024 - 08:52:19