Welcome Guest ( Log In | Register )

> Drescher - Steinfeld (2016), Melodic Death/Thrash/Folk Metal
post Nov 17 2016, 18:47:41
Post #1

Правь статус, ####!111
**************
Group: Металариец
Posts: 26,045
Releases: 18690
From: Г.Харьков
On Forums: 9 years 4 days
Thanks: 370453 time(s)
Unknown


(IMG:http://metalarea.org/images/audiocovers/2016_Nov/acov_tid278169_thumb.jpg)

*Artist: Drescher
*Album: Steinfeld
*Year: 2016
*Genre: Melodic Death/Thrash/Folk Metal
*Country: Austria (IMG:http://metalarea.org/forum/style_images/flags/Austria.png)
*Format: mp3@CBR320kbps
*Size: 102MB

Tracklist:
01. A bissl Glick
02. Adrenalin
03. Unten
04. Guade oide Zeit
05. Regen
06. Es reignt Bluat
07. Olles ok
08. Endlich leben
09. I will di ausbliatn sehn
10. Der Held
11. Die Marie (Bonus Track)
12. Vater vergib mir (Bonus Track)
******************************
Total playing time: 48:28



Technical info
(IMG:http://metalarea.org/images/spectrogram/2016_Nov/85097a84cf9e7a427baa83e4010ba534.png)
Input File: 04. Guade oide Zeit.mp3
Channels : 2
Sample Rate : 44100
Precision : 16-bit
Duration : 00:03:44.42 = 9896746 samples = 16831.2 CDDA sectors
File Size : 9.08M
Bit Rate : 324k
Sample Encoding: MPEG audio (layer I, II or III)
Comments :
Title=Guade oide Zeit
Artist=Drescher
Album=Steinfeld
Tracknumber=4
Year=2016



Register


Go to the top of the page
  Insert nick Quick quote
+Quote Post
 
Start new topic
Replies (1 - 6)
romanov
post Nov 18 2016, 08:40:16
Post #2

Guests team






Register


Thanks:
Go to the top of the page
  Insert nick Quick quote
+Quote Post
post Nov 18 2016, 10:02:42
Post #3

hearer & reader
**************
Group: Металариец
Posts: 9,659
Releases: 172
From: Moscow
On Forums: 13 years 8 months
Thanks: 10729 time(s)
Russian Federation



УГ
Go to the top of the page
  Insert nick Quick quote
+Quote Post
post Nov 18 2016, 10:17:34
Post #4

Аннигилятор пивА
Group Icon
Group: V.I.P
Posts: 52,360
Releases: 16550
From: Koenigsberg - TILZIT
On Forums: 14 years 11 months
Thanks: 367529 time(s)
Russian Federation


ЦИТАТА(AHBAnep @ Nov 18 2016, 09:02:42) *
УГ

ну когда-то должна была появится группа с названием дрищер (IMG:style_emoticons/default/1488.gif) или д-р-о-чер, что-то усредненное?
по сути типичный дойче условно-индастриал/фолк метал, роль волынки тут переложена на гармонь, дэта конечно нет, а вот трэш местами мелькает между припевами, впрочем трэки разные как принято в данном направлении, только припевы стандартные
Go to the top of the page
  Insert nick Quick quote
+Quote Post
post Mar 16 2019, 09:55:39
Post #5

Добрый
**************
Group: Металариец
Posts: 4,781
Releases: 0
On Forums: 2 years 10 months
Thanks: 11783 time(s)
Russian Federation


104 mb/320 kbps
Register


Thanks:
Go to the top of the page
  Insert nick Quick quote
+Quote Post
post Apr 8 2021, 05:56:54
Post #6

Два Литра
**
Group: Завсегдатай
Posts: 167
Releases: 0
From: Russian Federation
On Forums: 14 years 8 months
Thanks: 3 time(s)
Russian Federation


Thank you very much, but unfortunately the link is no longer available (IMG:style_emoticons/default/6.gif)
Can anyone help?
Go to the top of the page
  Insert nick Quick quote
+Quote Post
post Apr 8 2021, 18:24:53
Post #7

Правь статус, ####!111
**************
Group: Металариец
Posts: 4,561
Releases: 276
From: MoscoW
On Forums: 14 years 5 months
Thanks: 5112 time(s)
Russian Federation




Залито на Mega - 145.6Mb в 320kbps!!!:
+ Bonus Tracks:
11. Die Marie (Bonus Track)
12. Vater Vergib Mir (Bonus Track)
13. Geheiligt Werde Dein Name (''Hallowed Be Thy Name'' Iron Maiden Cover) (Bonus Track)
14. Bluternte (First Blood DJ Schmolli Bluternte-Remix) (Bonus Track)
15. Rock Me Amadeus (Falco Cover) (Bonus Track)
16. Ass In Pik (''Ace Of Space'' Motörhead Cover) (Bonus Track)
17. Olles Schwoarz (Bonus Track)
(192kbps)
Register

(IMG:style_emoticons/default/metaler.gif)



Thanks:
Go to the top of the page
  Insert nick Quick quote
+Quote Post

Reply to this topicStart new topic
1 User(s) are reading this topic (1 Guests and 0 Anonymous Users)
0 Members:

 



- Lo-Fi Version Support form
Copyrights and abuse reports form
Time is now: 14th May 2021 - 18:15:41