Welcome Guest ( Log In | Register )

> Sunlight's Bane - The Blackest Volume (Like All The Earth Was Buried) (2017), Black Metal/Grindcore/Sludge
post Feb 16 2017, 23:14:05
Post #1

Аннигилятор пивА
Group Icon
Group: V.I.P
Posts: 52,552
Releases: 16538
From: Koenigsberg - TILZIT
On Forums: 17 years 10 months
Thanks: 371796 time(s)
Russian Federation


(IMG:https://metalarea.org/images/audiocovers/2017_Feb/acov_tid283666_thumb.jpg)

*Artist: Sunlight's Bane
*Album: The Blackest Volume (Like All The Earth Was Buried)
*Year: 2017
*Genre: Black Metal/Grindcore/Sludge
*Country: United States (IMG:https://metalarea.org/forum/style_images/flags/United%20States.png)
*Format: mp3@CBR320kbps
*Size: 115MB

Tracklist:
01. Praise the Venom Shield
02. Begrudging Soul
03. From Heaven Wept
04. Cursed Diminished Years
05. I'm the Cold Harsh Wispers in Hell
06. Dance of Thorns
07. The Blessed Ivory Tongue
08. No Taste More Bitter
09. With Fear, This Love Is Given
10. Came No Dawn
11. To Whom I Await
******************************
Total playing time: 53:47




Extended info
Midwestern grinding death painting an atmosphere of horror and visciousness across the necks of listeners.



Technical info
(IMG:https://metalarea.org/images/spectrogram/2017_Feb/2dfbcccbbb05a4abdb9ea7f2e1d4cefe.png)
Input File: 02. Begrudging Soul.mp3
Channels : 2
Sample Rate : 44100
Precision : 16-bit
Duration : 00:04:19.50 = 11443994 samples = 19462.6 CDDA sectors
File Size : 10.4M
Bit Rate : 320k
Sample Encoding: MPEG audio (layer I, II or III)
Comments :
Title=Begrudging Soul
Artist=Sunlights Bane
Album=The Blackest Volume
Tracknumber=02/11
Year=2017
Discnumber=1/1



Register


Go to the top of the page
  Insert nick Quick quote
+Quote Post
 
Start new topic
Replies (1 - 3)
post Dec 16 2017, 08:03:32
Post #2

Group: Дух
Posts: 5
Releases: 0
On Forums: 6 years 4 months
Thanks: 0 time(s)
Unknown


can anyone re-up please? (IMG:style_emoticons/default/9.gif)
Go to the top of the page
  Insert nick Quick quote
+Quote Post
post Dec 16 2017, 08:17:52
Post #3

Аннигилятор пивА
Group Icon
Group: V.I.P
Posts: 52,552
Releases: 16538
From: Koenigsberg - TILZIT
On Forums: 17 years 10 months
Thanks: 371796 time(s)
Russian Federation


MIRROR
Register
Go to the top of the page
  Insert nick Quick quote
+Quote Post
post Apr 3 2024, 01:02:32
Post #4

Group: Дух
Posts: 1
Releases: 0
On Forums: 5 years 10 months
Thanks: 0 time(s)
Russian Federation


Anyone have a 320 re-up?
Go to the top of the page
  Insert nick Quick quote
+Quote Post

Reply to this topicStart new topic
2 User(s) are reading this topic (2 Guests and 0 Anonymous Users)
0 Members:

 



- Lo-Fi Version Support form
Copyrights and abuse reports form
Time is now: 16th April 2024 - 08:58:40