Welcome Guest ( Log In | Register )

> И неформату есть предел.

Рэп/хип-хоп/шансон/поп удаляются. Для них есть свои порталы.

> St.Hood - The Age Of Unreason (2017), Hardcore
post Sep 27 2017, 19:35:34
Post #1

Правь статус, ####!111
**************
Group: Металариец
Posts: 23,148
Releases: 16149
From: Г.Харьков
On Forums: 8 years 4 months
Thanks: 300521 time(s)
Unknown


(IMG:https://metalarea.org/images/audiocovers/2017_Sep/acov_tid295240_thumb.jpg)

*Artist: St.Hood
*Album: The Age Of Unreason
*Year: 2017
*Genre: Hardcore
*Country: Finland (IMG:https://metalarea.org/forum/style_images/flags/Finland.png)
*Format: mp3@CBR320kbps
*Size: 72MB

Tracklist:
01. Unbroken Line
02. No Excuses
03. Heart of a Lion
04. A Son of Man
05. Unfulfilled
06. A World Enslaved
07. Concept of Mercy
08. Code of Silence
09. The Age of Unreason
10. The Grip
11. End in Sight
******************************
Total playing time: 31:02

Extended info


Technical info
(IMG:https://metalarea.org/images/spectrogram/2017_Sep/a57ba90a26819b95fd8291a7b95f13b1.png)
Input File: 04. A Son of Man.mp3
Channels : 2
Sample Rate : 44100
Precision : 16-bit
Duration : 00:04:02.57 = 10697425 samples = 18192.9 CDDA sectors
File Size : 9.79M
Bit Rate : 323k
Sample Encoding: MPEG audio (layer I, II or III)
Comments :
Title=A Son of Man
Artist=St.Hood
Album=The Age of Unreason
Tracknumber=4/11
Year=2017



Register


Go to the top of the page
  Insert nick Quick quote
+Quote Post
 
Start new topic
Replies (1 - 4)
post Sep 27 2017, 19:45:30
Post #2

Аннигилятор пивА
Group Icon
Group: V.I.P
Posts: 52,360
Releases: 16550
From: Koenigsberg - TILZIT
On Forums: 14 years 3 months
Thanks: 366037 time(s)
Russian Federation


(IMG:style_emoticons/default/crazy.gif) в основном процентов на 90 среднетемповый хардкор, известные в финиколяндии хардкорщики, это третий альбом, слабая версия среднего Hatebreed
Hardcore band from Helsinki, Finland, founded in 2003
https://www.discogs.com/artist/1638376-St-Hood
Go to the top of the page
  Insert nick Quick quote
+Quote Post
post Sep 27 2017, 20:58:34
Post #3

Правь статус, ####!111
**************
Group: Металариец
Posts: 23,148
Releases: 16149
From: Г.Харьков
On Forums: 8 years 4 months
Thanks: 300521 time(s)
Unknown


ЦИТАТА(aesteticvice @ 27th September 2017 - 19:45:30) *
в основном процентов на 90 среднетемповый хардкор, известные в финиколяндии хардкорщики

Ты же даже не то что не слушал альбом,а даже и не слышал о существовании этой группы
до сегодняшнего дня!
Register

Register

если бы они хардкор то их бы на архивах точно не было.
Go to the top of the page
  Insert nick Quick quote
+Quote Post
post Sep 27 2017, 21:02:40
Post #4

Аннигилятор пивА
Group Icon
Group: V.I.P
Posts: 52,360
Releases: 16550
From: Koenigsberg - TILZIT
On Forums: 14 years 3 months
Thanks: 366037 time(s)
Russian Federation


ЦИТАТА(Samaritianin @ Sep 27 2017, 19:58:34) *
если бы они хардкор то их бы на архивах точно не было.

на архивы строчат каждый желающий, там и мортис есть (IMG:style_emoticons/default/1488.gif) https://www.metal-archives.com/bands/Mortiis/81 наверно группе лучше знать че они играют если на слух не слышно, ну и более-менее дискогс адекватен, там инфа идет с лейбла и из официальных источников
Go to the top of the page
  Insert nick Quick quote
+Quote Post
post Oct 8 2017, 08:51:37
Post #5

Маньяк
**********
Group: Металариец
Posts: 1,404
Releases: 121
On Forums: 11 years 1 month
Thanks: 1086 time(s)
Kazakhstan



ЦИТАТА(Samaritianin @ 28th September 2017 - 01:58:34) *
Hidden text
метал архивы
если бы они хардкор то их бы на архивах точно не было.

Оуу..
aesteticvice, на этот раз я на твоей стороне
Go to the top of the page
  Insert nick Quick quote
+Quote Post

Reply to this topicStart new topic
1 User(s) are reading this topic (1 Guests and 0 Anonymous Users)
0 Members:

 



- Lo-Fi Version Support form
Copyrights and abuse reports form
Time is now: 20th September 2020 - 13:59:19