Welcome Guest ( Log In | Register )

Объявления

* gmail.com упорно продолжает считать почту с нас "unsolicited" и отбивает в том числе и письма активации, поэтому просьба использовать альтернативные почтовые ящики.
------------
* gmail.com continues reject all mail from us as "unsolicited" (activation mails too) therefore please use alternate mail servers.

> И неформату есть предел.

Рэп/хип-хоп/шансон/поп удаляются. Для них есть свои порталы.

> Totem Skin - Weltschmerz (2015), Screamo/Hardcore/Crust Punk
post Feb 26 2018, 22:21:39
Post #1

**************
Group: Металариец
Posts: 2,557
Releases: 28
From: Хунта-Сіті
On Forums: 17 years 3 months
Thanks: 3718 time(s)
Ukraine


(IMG:https://metalarea.org/images/audiocovers/2018_Feb/acov_tid302577_thumb.jpg)

*Artist: Totem Skin
*Album: Weltschmerz
*Year: 2015
*Genre: Screamo/Hardcore/Crust Punk
*Country: Sweden (IMG:https://metalarea.org/forum/style_images/flags/Sweden.png)
*Format: mp3@CBR320kbps
*Size: 77MB

Tracklist:
01. always ire
02. longing leans and beckon
03. reckless recluse
04. the mouth of man
05. pretend
06. distant visitant
07. de blindas rike är den enögde kung
******************************
Total playing time: 34:00

Technical info
(IMG:https://metalarea.org/images/spectrogram/2018_Feb/cfa63fc3cc8cbde7e87722fd73931619.png)
Input File: 02 - Longing Leans And Beckon.mp3
Channels : 2
Sample Rate : 44100
Precision : 16-bit
Duration : 00:03:00.81 = 7973853 samples = 13561 CDDA sectors
File Size : 7.28M
Bit Rate : 322k
Sample Encoding: MPEG audio (layer I, II or III)
Comments :
Title=Longing Leans And Beckon
Artist=Totem Skin
Album=Weltschmerz
Tracknumber=02
Year=2015
Genre=Screamo/Hardcore/Crust Punk



Register


Go to the top of the page
  Insert nick Quick quote
+Quote Post
 
Start new topic
Replies (1 - 3)
post Feb 27 2018, 08:32:06
Post #2

Шесть Литров
******
Group: Металариец
Posts: 520
Releases: 0
From: Мурманск
On Forums: 14 years 1 month
Thanks: 706 time(s)
Russian Federation




Thanks:
Go to the top of the page
  Insert nick Quick quote
+Quote Post
post Feb 27 2018, 12:24:50
Post #3

https://rateyourmusic.com/~Ghostb
**************
Group: Металариец
Posts: 2,777
Releases: 0
From: Харьков
On Forums: 14 years 8 months
Thanks: 1383 time(s)
Ukraine


Обложку лидер Baroness рисовал, судя по всему)
Go to the top of the page
  Insert nick Quick quote
+Quote Post
post Oct 19 2018, 19:14:25
Post #4

Правь статус, ####!111
**************
Group: Металариец
Posts: 2,290
Releases: 279
From: Omsk, Siberia
On Forums: 15 years 2 months
Thanks: 5931 time(s)
Russian Federation


newer links (320):
Register


This post has been edited by Evgundel: Oct 20 2018, 09:38:18


Thanks:
Go to the top of the page
  Insert nick Quick quote
+Quote Post

Reply to this topicStart new topic
1 User(s) are reading this topic (1 Guests and 0 Anonymous Users)
0 Members:

 



- Lo-Fi Version Support form
Copyrights and abuse reports form
Time is now: 26th May 2024 - 18:07:45