Welcome Guest ( Log In | Register )

> Правила / Rules

Тут только для чтения лежат низкобитрейтные (<192kbps) релизы, для которых есть аналоги в высокобитрейтных форумах.

Here goes (and stand in read only mode) low bitrate releases (<192kbps) which were already replaced by high bitrate releases in corresponding forums.

> Plague Years - Unholy Infestation (2018), Death/Thrash Metal
post Nov 5 2018, 04:51:34
Post #1

Аннигилятор пивА
Group Icon
Group: V.I.P
Posts: 52,360
Releases: 16550
From: Koenigsberg - TILZIT
On Forums: 14 years 3 days
Thanks: 365269 time(s)
Russian Federation


(IMG:https://metalarea.org/images/audiocovers/2018_Nov/acov_tid312626_thumb.jpg)

*Artist: Plague Years
*Album: Unholy Infestation [ep]
*Year: 2018
*Genre: Death/Thrash Metal
*Country: United States (IMG:https://metalarea.org/forum/style_images/flags/United%20States.png)
*Format: mp3@CBR320kbps
*Size: 65MB

Tracklist:
1. Unholy Infestation 05:11
2. Outer Darkness 04:38
3. Hellborn 05:33
4. Aeon of the Serpent 05:27
5. Taker of Life 03:09
6. Infernal Torment 04:54
******************************
Total playing time: 28:52




Extended info
Mike Jurysta - Drums See also: Breaking Wheel, Build and Destroy
Eric Lauder - Guitars (lead) See also: Build and Destroy
Jimmy Bilbrey - Guitars (rhythm)
Tim Englehardt - Vocals


Technical info
(IMG:https://metalarea.org/images/spectrogram/2018_Nov/7cc017886d3d09c273ba018d1001c23d.png)
Input File: 03. Hellborn.mp3
Channels : 2
Sample Rate : 44100
Precision : 16-bit
Duration : 00:05:33.34 = 14700294 samples = 25000.5 CDDA sectors
File Size : 13.7M
Bit Rate : 329k
Sample Encoding: MPEG audio (layer I, II or III)
Comments :
Title=Hellborn
Artist=Plague Years
Album=Unholy Infestation
Tracknumber=03/06
Year=2018
Genre=Metal



Register


Go to the top of the page
  Insert nick Quick quote
+Quote Post
 
Start new topic
Replies (1 - 1)
post Nov 5 2018, 12:29:21
Post #2

Три Литра
***
Group: Завсегдатай
Posts: 273
Releases: 0
From: Россия
On Forums: 8 years 3 months
Thanks: 90 time(s)
Russian Federation


Тип релиза:ЕР


https://www.youtube.com/watch?v=trzgqj_iwEI


Thanks:
(1) boby9052,
Go to the top of the page
  Insert nick Quick quote
+Quote Post

Причина закрытия (Borderline1991 06-12-2018): Plague Years - Unholy Infestation [ep] (2018)
Closed TopicStart new topic
2 User(s) are reading this topic (2 Guests and 0 Anonymous Users)
0 Members:

 



- Lo-Fi Version Support form
Copyrights and abuse reports form
Time is now: 30th May 2020 - 23:16:03