Welcome Guest ( Log In | Register )

> Cosmic Entity - State Of The Union (2019), Thrash/Death Metal
post Jan 24 2019, 06:00:16
Post #1

Serial Uploader
Group Icon
Group: V.I.P
Posts: 37,612
Releases: 35784
From: Lithuania
On Forums: 13 years 3 months
Thanks: 433499 time(s)
Lithuania


(IMG:http://metalarea.org/images/audiocovers/2019_Jan/acov_tid316378_thumb.jpg)

*Artist: Cosmic Entity
*Album: State Of The Union
*Year: 2019
*Genre: Thrash/Death Metal
*Country: United States (IMG:http://metalarea.org/forum/style_images/flags/United%20States.png)
*Format: mp3@CBR320kbps
*Size: 113MB

Tracklist:
01. I Am Not a Crook!
02. Dead Hand
03. Cult 45
04. Arbeit Macht Frei
05. We Want the Truth (Interlude)
06. Mass Manipulator
07. Nameless Warrior
08. Kill, Destroy, Obliterate!
09. Pyrrhic Victories (The Price of War)
10. Worship the Bullet
******************************
Total playing time: 49:13



Technical info
(IMG:http://metalarea.org/images/spectrogram/2019_Jan/073406ac4de1d2caabba140ad26d6f55.png)
Input File: 02. Cult 45.mp3
Channels : 2
Sample Rate : 44100
Precision : 16-bit
Duration : 00:05:12.52 = 13782264 samples = 23439.2 CDDA sectors
File Size : 12.5M
Bit Rate : 321k
Sample Encoding: MPEG audio (layer I, II or III)
Comments :
Title=Cult 45
Artist=Cosmic Entity
Album=State of the Union
Tracknumber=2/10
Year=2019



Register


Go to the top of the page
  Insert nick Quick quote
+Quote Post
 
Start new topic
Replies (1 - 1)
post Jan 24 2019, 12:25:23
Post #2

Маньяк
**********
Group: Металариец
Posts: 1,121
Releases: 0
On Forums: 10 years 4 months
Thanks: 539 time(s)
Unknown




Thanks:
(1) artscald,
Go to the top of the page
  Insert nick Quick quote
+Quote Post

Reply to this topicStart new topic
1 User(s) are reading this topic (1 Guests and 0 Anonymous Users)
0 Members:

 



- Lo-Fi Version Support form
Copyrights and abuse reports form
Time is now: 19th September 2021 - 18:46:04