Welcome Guest ( Log In | Register )

> И неформату есть предел.

Рэп/хип-хоп/шансон/поп удаляются. Для них есть свои порталы.

> DisasterTheory - Dying Side Of Life (2019), Alternative Metal
post May 17 2019, 14:05:27
Post #1

Serial Uploader
Group Icon
Group: V.I.P
Posts: 35,872
Releases: 34079
From: Lithuania
On Forums: 11 years 2 months
Thanks: 394033 time(s)
Lithuania


(IMG:https://metalarea.org/images/audiocovers/2019_May/acov_tid321988_thumb.jpg)

*Artist: DisasterTheory
*Album: Dying Side Of Life
*Year: 2019
*Genre: Alternative Metal
*Country: United States (IMG:https://metalarea.org/forum/style_images/flags/United%20States.png)
*Format: mp3@CBR320kbps
*Size: 117MB

Tracklist:
01. Freak Show (Intro)
02. Dying Side Of Life
03. Black Star
04. I’m Your God
05. Stuck In The Middle
06. Get Away
07. When It Turns On You
08. Hyperdrive
09. Let It Rain
10. Never Return
11. Turn This World Around
12. I’ve Fallen Down
13. Patchwork Psychopath
******************************
Total playing time: 50:56



Technical info
(IMG:https://metalarea.org/images/spectrogram/2019_May/e0fba126fa661f7bf640d8dcb8675e9a.png)
Input File: 02. Dying Side Of Life.mp3
Channels : 2
Sample Rate : 44100
Precision : 16-bit
Duration : 00:03:18.68 = 8761568 samples = 14900.6 CDDA sectors
File Size : 8.49M
Bit Rate : 342k
Sample Encoding: MPEG audio (layer I, II or III)
Comments :
Title=Dying Side Of Life
Artist=DisasterTheory
Album=Dying Side Of Life
Tracknumber=2/13
Year=2019



Register


Go to the top of the page
  Insert nick Quick quote
+Quote Post
 
Start new topic
Replies (1 - 2)
post May 17 2019, 15:13:21
Post #2

hearer & reader
**************
Group: Металариец
Posts: 7,965
Releases: 103
From: Moscow
On Forums: 11 years 11 months
Thanks: 7467 time(s)
Russian Federation



Прогрессивная альтернатива вульгарис.


Thanks:
Go to the top of the page
  Insert nick Quick quote
+Quote Post
post May 22 2019, 17:42:51
Post #3

21st Century Schizoid Man
**************
Group: Металариец
Posts: 5,942
Releases: 71
From: Moscow
On Forums: 11 years 3 months
Thanks: 4603 time(s)
Russian Federation


Прогрессива не услышал. Alternative Metalcore.
Go to the top of the page
  Insert nick Quick quote
+Quote Post

Reply to this topicStart new topic
1 User(s) are reading this topic (1 Guests and 0 Anonymous Users)
0 Members:

 



- Lo-Fi Version Support form
Copyrights and abuse reports form
Time is now: 26th August 2019 - 01:15:11