Welcome Guest ( Log In | Register )

Объявления

* gmail.com упорно продолжает считать почту с нас "unsolicited" и отбивает в том числе и письма активации, поэтому просьба использовать альтернативные почтовые ящики.
------------
* gmail.com continues reject all mail from us as "unsolicited" (activation mails too) therefore please use alternate mail servers.
> Hyaena - Kill Without Mercy [demo] (1986), Heavy Metal
post Sep 25 2019, 11:27:55
Post #1

Подвал
**************
Group: Металариец
Posts: 20,384
Releases: 11706
From: Far East (Khabarovsk)
On Forums: 15 years 3 months
Thanks: 138997 time(s)
Russian Federation


(IMG:http://metalarea.org/images/audiocovers/2019_Sep/acov_tid327940_thumb.jpg)

*Artist: Hyaena
*Album: Kill Without Mercy [demo]
*Year: 1986
*Genre: Heavy Metal
*Country: Italy (IMG:http://metalarea.org/forum/style_images/flags/Italy.png)
*Format: mp3@CBR192kbps
*Size: 34MB

Tracklist:
1. Kill Without Mercy 05:35
2. Unlimited Power 05:25
3. Queen Of Metal 06:40
4. Wrathchild 07:17
******************************
Total playing time: 24:57

Technical info
(IMG:http://metalarea.org/images/spectrogram/2019_Sep/0f1b74887d96052a4ccebd1cd439ff6e.png)
Input File: 01-Kill Without Mercy.mp3
Channels : 2
Sample Rate : 44100
Precision : 16-bit
Duration : 00:05:35.69 = 14803841 samples = 25176.6 CDDA sectors
File Size : 8.06M
Bit Rate : 192k
Sample Encoding: MPEG audio (layer I, II or III)
Comments :
Title=Kill Without Mercy
Artist=Hyaena (Ita)
Album=Kill Without Mercy (Demo)
Tracknumber=01
Year=1986
Genre=Heavy Metal



Register


Go to the top of the page
  Insert nick Quick quote
+Quote Post
 
Start new topic
Replies (1 - 2)
post Feb 11 2024, 18:27:40    Сейчас играет: Re-up please ;-)
Post #2

Правь статус, ####!111
**************
Group: Металариец
Posts: 3,765
Releases: 0
From: Sofia
On Forums: 16 years 7 months
Thanks: 134 time(s)
Bulgaria


Re-up please (IMG:style_emoticons/default/pray.gif) (IMG:style_emoticons/default/pray.gif) (IMG:style_emoticons/default/pray.gif) (IMG:style_emoticons/default/pray.gif)
Go to the top of the page
  Insert nick Quick quote
+Quote Post
post Apr 1 2024, 17:26:42
Post #3

Подвал
**************
Group: Металариец
Posts: 20,384
Releases: 11706
From: Far East (Khabarovsk)
On Forums: 15 years 3 months
Thanks: 138997 time(s)
Russian Federation


new link:
Register
Go to the top of the page
  Insert nick Quick quote
+Quote Post

Reply to this topicStart new topic
1 User(s) are reading this topic (1 Guests and 0 Anonymous Users)
0 Members:

 



- Lo-Fi Version Support form
Copyrights and abuse reports form
Time is now: 25th May 2024 - 19:05:22