Help - Search - Members - Calendar
Full Version: Hyaena - Kill Without Mercy [demo] (1986)
Metal Area - Extreme Music Portal > Releases Area / Релизы > New Releases > Low Bitrate
Proteus_666


*Artist: Hyaena
*Album: Kill Without Mercy [demo]
*Year: 1986
*Genre: Heavy Metal
*Country: Italy
*Format: mp3@CBR192kbps
*Size: 34MB

Tracklist:
1. Kill Without Mercy 05:35
2. Unlimited Power 05:25
3. Queen Of Metal 06:40
4. Wrathchild 07:17
******************************
Total playing time: 24:57

Technical info

Input File: 01-Kill Without Mercy.mp3
Channels : 2
Sample Rate : 44100
Precision : 16-bit
Duration : 00:05:35.69 = 14803841 samples = 25176.6 CDDA sectors
File Size : 8.06M
Bit Rate : 192k
Sample Encoding: MPEG audio (layer I, II or III)
Comments :
Title=Kill Without Mercy
Artist=Hyaena (Ita)
Album=Kill Without Mercy (Demo)
Tracknumber=01
Year=1986
Genre=Heavy Metal



[ Hidden Text ]
kastrup
Re-up please pray.gif pray.gif pray.gif pray.gif
Proteus_666
new link:
[ Hidden Text ]
This is a "lo-fi" version of our main content. To view the full version with more information, formatting and images, please click here.
Invision Power Board © 2001-2024 Invision Power Services, Inc.