Welcome Guest ( Log In | Register )

> Aphotic Zone - In The Name Of Sorrow (2019), Atmospheric Doom/Death Metal
post Dec 7 2020, 21:48:03
Post #1

Правь статус, ####!111
**************
Group: Металариец
Posts: 26,683
Releases: 19243
From: Г.Харьков
On Forums: 9 years 2 months
Thanks: 385070 time(s)
Unknown


(IMG:https://metalarea.org/images/audiocovers/2020_Dec/acov_tid344818_thumb.jpg)

*Artist: Aphotic Zone
*Album: In The Name Of Sorrow
*Year: 2019
*Genre: Atmospheric Doom/Death Metal
*Country: Iran (IMG:https://metalarea.org/forum/style_images/flags/Iran.png)
*Format: mp3@CBR320kbps
*Size: 69MB

Tracklist:
1. Broken Emotions (Intro) 02:34 instrumental
2. Love Is the Only Way 04:42
3. Signs of Misery 03:37
4. Some Minutes to Death 05:53
5. Night Gates 05:17
6. Cold Morning 03:59
7. Rain and Tears 04:11
******************************
Total playing time: 30:13



Extended info
Mohammadreza Alvari Everything


Technical info
(IMG:https://metalarea.org/images/spectrogram/2020_Dec/2d25a281400da1c920b947308765e479.png)
Input File: 05 - Night Gates.mp3
Channels : 2
Sample Rate : 44100
Precision : 16-bit
Duration : 00:05:17.06 = 13982170 samples = 23779.2 CDDA sectors
File Size : 12.7M
Bit Rate : 321k
Sample Encoding: MPEG audio (layer I, II or III)
Comments :
Title=Night Gates
Artist=Aphotic Zone
Album=In The Name Of Sorrow
Tracknumber=05
Year=2019
Genre=Atmospheric Doom Metal



Register


Go to the top of the page
  Insert nick Quick quote
+Quote Post
 
Start new topic
Replies (1 - 4)
post Dec 8 2020, 12:40:10
Post #2

Три Литра
***
Group: Завсегдатай
Posts: 296
Releases: 0
On Forums: 3 years 5 months
Thanks: 119 time(s)
Belarus


Режущий слух звук из Ирана. Не знаю, как вот это вот, можно обозвать "Atmospheric Doom Death Metal".
Go to the top of the page
  Insert nick Quick quote
+Quote Post
post Dec 11 2020, 20:39:49
Post #3

ME[ta]LLOMAN
**************
Group: Металариец
Posts: 5,009
Releases: 3
From: Avdeyevka
On Forums: 15 years 3 months
Thanks: 2060 time(s)
Honduras


приятные инструментальные пассажи, вокал - сумбурный, но общей картины не портит.. а вот, кассательно гитарных секций - скудненько.. но как для однолюдного проекта, в добавок из ирана... аранжировка и сведение материала наталкивает на параллели с Filosofem (IMG:style_emoticons/default/1488.gif)
конечно жэ, не номиминант на признание года, но и внимания обязан быть удостоен


Thanks:
(1) avather,
Go to the top of the page
  Insert nick Quick quote
+Quote Post
post Dec 11 2020, 22:24:55
Post #4

Это просто место… где все подошло к концу.
**************
Group: Металариец
Posts: 6,345
Releases: 0
From: Страны Мамонтов
On Forums: 14 years 5 months
Thanks: 2483 time(s)
Antarctica


Нормас. Слушать интересно
Go to the top of the page
  Insert nick Quick quote
+Quote Post
post Feb 12 2021, 16:14:46
Post #5

Пять Литров
*****
Group: Металариец
Posts: 423
Releases: 5
From: Суворов
On Forums: 3 years 6 months
Thanks: 87 time(s)
Russian Federation


нормально, хоть и не зацепили
Go to the top of the page
  Insert nick Quick quote
+Quote Post

Reply to this topicStart new topic
1 User(s) are reading this topic (1 Guests and 0 Anonymous Users)
0 Members:

 



- Lo-Fi Version Support form
Copyrights and abuse reports form
Time is now: 28th July 2021 - 15:35:58