Welcome Guest ( Log In | Register )

> Medenera - Argento (2020), Atmospheric Black Metal
post Dec 23 2020, 19:14:45
Post #1

Правь статус, ####!111
**************
Group: Металариец
Posts: 28,186
Releases: 20579
From: Г.Харьков
On Forums: 9 years 6 months
Thanks: 419190 time(s)
Unknown


(IMG:http://metalarea.org/images/audiocovers/2020_Dec/acov_tid345375_thumb.jpg)

*Artist: Medenera
*Album: Argento
*Year: 2020
*Genre: Atmospheric Black Metal
*Country: Italy (IMG:http://metalarea.org/forum/style_images/flags/Italy.png)
*Format: mp3@CBR320kbps
*Size: 173MB

Tracklist:
01. Argentea I
02. Argentea II
03. Argentea III
04. Tempora veris I
05. Tempora veris II
06. Tempora veris III
07. Frigida ventis I
08. Frigida ventis II
09. Frigida ventis III
10. Igneus I
11. Igneus II
12. Igneus III
13. Ghost Track
******************************
Total playing time: 1:08:07




Extended info
CD-Rip+scans


Technical info
(IMG:http://metalarea.org/images/spectrogram/2020_Dec/35e33851d7b1b7d3ba3f2149108d6ec6.png)
Input File: 07. Frigida Ventis I.mp3
Channels : 2
Sample Rate : 44100
Precision : 16-bit
Duration : 00:05:31.89 = 14636525 samples = 24892 CDDA sectors
File Size : 13.3M
Bit Rate : 320k
Sample Encoding: MPEG audio (layer I, II or III)
Comments :
Title=Frigida Ventis I
Artist=Medenera
Album=Argento
Tracknumber=07
Year=2020
Genre=Atmospheric Black Metal



Register


Go to the top of the page
  Insert nick Quick quote
+Quote Post
 
Start new topic
Replies (1 - 1)
post Dec 27 2020, 19:56:09
Post #2

Мегаманьяк
***********
Group: Металариец
Posts: 1,514
Releases: 0
From: Russian Federation - St.Petersburg
On Forums: 12 years 9 months
Thanks: 414 time(s)
Russian Federation


Приятная музыка! Утяжелённая Энигма, так сказать... Работать под такую хорошо! (IMG:style_emoticons/default/smile4.gif)


Thanks:
Go to the top of the page
  Insert nick Quick quote
+Quote Post

Reply to this topicStart new topic
2 User(s) are reading this topic (2 Guests and 0 Anonymous Users)
0 Members:

 



- Lo-Fi Version Support form
Copyrights and abuse reports form
Time is now: 6th December 2021 - 01:39:09