Welcome Guest ( Log In | Register )

Объявления

* gmail.com упорно продолжает считать почту с нас "unsolicited" и отбивает в том числе и письма активации, поэтому просьба использовать альтернативные почтовые ящики.
------------
* gmail.com continues reject all mail from us as "unsolicited" (activation mails too) therefore please use alternate mail servers.
> And Now The Owls Are Smiling - The Brooding [ep] (2017), Atmospheric/Depressive Black Metal (D6)
post Mar 24 2021, 17:56:06
Post #1

Правь статус, ####!111
**************
Group: Металариец
Posts: 5,619
Releases: 632
From: MoscoW
On Forums: 17 years 7 months
Thanks: 10359 time(s)
Russian Federation


(IMG:https://metalarea.org/images/audiocovers/2021_Mar/acov_tid348860_thumb.jpg)

*Artist: And Now The Owls Are Smiling
*Album: The Brooding [ep]
*Year: 2017
*Genre: Atmospheric/Depressive Black Metal
*Country: United Kingdom (IMG:https://metalarea.org/forum/style_images/flags/United%20Kingdom.png)
*Format: mp3@CBR128kbps (IMG:https://metalarea.org/images/bit_low.gif)
*Size: 27MB

Tracklist:
01. The Silence 08:58
02. The Guardians 06:25
03. The Ferryman 09:51
04. The Terrible 03:04
******************************
Total playing time: 28:18

Extended info




Technical info
(IMG:https://metalarea.org/images/spectrogram/2021_Mar/45a435d82a0ede36aa980b739bc7d7d1.png)
Input File: 01. The Silence.mp3
Channels : 2
Sample Rate : 44100
Precision : 16-bit
Duration : 00:08:58.83 = 23762535 samples = 40412.5 CDDA sectors
File Size : 8.67M
Bit Rate : 129k
Sample Encoding: MPEG audio (layer I, II or III)
Comments :
Title=The Silence
Artist=And Now The Owls Are Smiling
Album=The Brooding (ep)
Tracknumber=01/04
Year=2017
Genre=Atmospheric Black Metal



Register


Go to the top of the page
  Insert nick Quick quote
+Quote Post
 
Start new topic
Replies (1 - 1)
post Oct 11 2023, 19:36:10
Post #2

Правь статус, ####!111
**************
Group: Металариец
Posts: 3,232
Releases: 0
From: д. Гадюкино
On Forums: 10 years 1 month
Thanks: 3319 time(s)
Russian Federation


320 PLS.
Go to the top of the page
  Insert nick Quick quote
+Quote Post

Reply to this topicStart new topic
1 User(s) are reading this topic (1 Guests and 0 Anonymous Users)
0 Members:

 



- Lo-Fi Version Support form
Copyrights and abuse reports form
Time is now: 22nd July 2024 - 09:29:15