Welcome Guest ( Log In | Register )

> Gate Master & Reign - Gate Master/Reign [split] (2021), Black Metal | Black Metal (D)
post Apr 17 2021, 13:37:58
Post #1

Правь статус, 616
**************
Group: Металариец
Posts: 8,519
Releases: 6795
From: 55°35’N 38°08’E
On Forums: 14 years 6 months
Thanks: 122997 time(s)
Russian Federation


(IMG:https://metalarea.org/images/audiocovers/2021_Apr/acov_tid349758_thumb.jpg)

*Artist: Gate Master & Reign
*Album: Gate Master/Reign [split]
*Year: 2021
*Genre: Black Metal | Black Metal
*Country: United Kingdom (IMG:https://metalarea.org/forum/style_images/flags/United%20Kingdom.png) | United Kingdom (IMG:https://metalarea.org/forum/style_images/flags/United%20Kingdom.png)
*Format: mp3@CBR320kbps
*Size: 44MB

Tracklist:
Gate Master:
1.The Parallax 06:26
Reign:
2.If The Stars Begin To Fade 03:56
Gate Master & Reign:
3.Necromantic Cataclysm 02:43
4.Puritain 04:52
******************************
Total playing time: 17:57

(IMG:https://metalarea.org/images/youtube.png)



Technical info
(IMG:https://metalarea.org/images/spectrogram/2021_Apr/4e231f8487e13d8ce40c2af223aba8f6.png)
Input File: 01 The Parallax (Gate Master).mp3
Channels : 2
Sample Rate : 44100
Precision : 16-bit
Duration : 00:06:26.87 = 17061011 samples = 29015.3 CDDA sectors
File Size : 15.6M
Bit Rate : 323k
Sample Encoding: MPEG audio (layer I, II or III)
Comments :
Title=The Parallax (Gate Master)
Artist=Gate Master
Album=Gate Master / Reign Split
Tracknumber=1
Year=2021
Genre=Black Metal



Register


Go to the top of the page
  Insert nick Quick quote
+Quote Post
 
Start new topic
Replies (1 - 1)
post Jan 25 2023, 22:08:39
Post #2

Пять Литров
*****
Group: Металариец
Posts: 401
Releases: 0
From: Toulon
On Forums: 2 years 9 months
Thanks: 31 time(s)
France


plz reup thx
Go to the top of the page
  Insert nick Quick quote
+Quote Post

Reply to this topicStart new topic
1 User(s) are reading this topic (1 Guests and 0 Anonymous Users)
0 Members:

 



- Lo-Fi Version Support form
Copyrights and abuse reports form
Time is now: 28th January 2023 - 20:26:05