Welcome Guest ( Log In | Register )

> 

Здесь релизы с живыми прямыми ссылками на lossless

> Maggot Crown - Cryptic Immoral Secure (2021), Death Metal/Grindcore
post May 21 2021, 11:15:41
Post #1

Правь статус, ####!111
**************
Group: Металариец
Posts: 26,736
Releases: 19295
From: Г.Харьков
On Forums: 9 years 2 months
Thanks: 386289 time(s)
Unknown


(IMG:https://metalarea.org/images/audiocovers/2021_May/acov_tid351129_thumb.jpg)

*Artist: Maggot Crown
*Album: Cryptic Immoral Secure
*Year: 2021
*Genre: Death Metal/Grindcore
*Country: United States (IMG:https://metalarea.org/forum/style_images/flags/United%20States.png)
*Format: mp3@CBR320kbps
*Size: 80MB

Tracklist:
1. Spectre of Nihilism
2. Obedience Pills
3. War Is Peace
4. Murdeous Continuations
5. Clawing Submission
6. Life Is Suffering
7. Cryptic Immoral Secure
8. Language Corrupted
9. Cover Thine Eyes
10. Welcome Your Indoctrination
******************************
Total playing time: 35:00




Extended info
Jared Moran Guitars, Drums, Bass, Vocals (2014-present)
See also: 54R, Ange de la Mort, Bloodsick, Cave, Conjuration Trance, Corpse Arise, Dragón Blanco, Draug, Eats Aids, Er Murazor, Evaporated Sores, Feral Lord, Filtheater, Flesh Configuration, Flittering, Forestfather, Gastric Phantasm, Herculean Death, Hollowed Idols, Inner Sphere, Ishimura, Kamikaze Pilots, Louching, Morgue Walker, Mountain of Beard, Myrkridia, Obsidian Hooves, Occulsed, Oshiego, Putrefying Cadaverment, Qqgcguvhjn, Raum, Shokushu Goukan, Spawning Vats, Subterranean Birthright, Tacit Annihilation, The Breaking Wheel, The Plague Doctor, Ultima Weapon, Uzumaki, Vomitwolves, Xvart, Yzordderrex, Zombie Raiders, Ithaqua, Scowl, ex-Immaculate Molestation, ex-Your End, Boiled Tongue, Confined Space, Dragunov, Homie Kisses, Old Woman with No Teeth, Popiel, Scourge Whip, ex-Cosmic Atrophy, ex-Gurthang, ex-Vixenta, ex-Bunker Buster, ex-Driven by Suffering, ex-Recovery Period, ex-S & M Party, ex-Seppuku, ex-The Men Behind the Sun, ex-The Nautilus
Justin Vølus Vocals (2019-present)
See also: Flesh Configuration, Morgue Walker, Putrefying Cadaverment, Vølus, ex-Abhorrent Deformity, ex-Daedalvs


Technical info
(IMG:https://metalarea.org/images/spectrogram/2021_May/008cfec296290c8c8614ad55ce2876c9.png)
Input File: 07 - Cryptic Immoral Secure.mp3
Channels : 2
Sample Rate : 44100
Precision : 16-bit
Duration : 00:03:54.60 = 10345640 samples = 17594.6 CDDA sectors
File Size : 9.39M
Bit Rate : 320k
Sample Encoding: MPEG audio (layer I, II or III)
Comments :
Title=Cryptic Immoral Secure
Artist=Maggot Crown
Album=Cryptic Immoral Secure
Tracknumber=7
Year=2021



Register


Go to the top of the page
  Insert nick Quick quote
+Quote Post
 
Start new topic
Replies (1 - 1)
post May 23 2021, 09:17:51
Post #2

Old School Metal
**************
Group: Металариец
Posts: 3,950
Releases: 0
From: г. Минск
On Forums: 12 years 4 months
Thanks: 9318 time(s)
Belarus



Lossless: FLAC (tracks)
Register


Thanks:
Go to the top of the page
  Insert nick Quick quote
+Quote Post

Reply to this topicStart new topic
1 User(s) are reading this topic (1 Guests and 0 Anonymous Users)
0 Members:

 



- Lo-Fi Version Support form
Copyrights and abuse reports form
Time is now: 2nd August 2021 - 13:54:16