Welcome Guest ( Log In | Register )

> И неформату есть предел.

Рэп/хип-хоп/шансон/поп удаляются. Для них есть свои порталы.

> Mephistos - Sünder (2021), Industrial/Gothic Metal
post Jun 17 2021, 00:16:14
Post #1

Маньяк
**********
Group: Металариец
Posts: 1,094
Releases: 934
On Forums: 1 year 7 months
Thanks: 24893 time(s)
United States


(IMG:http://metalarea.org/images/audiocovers/2021_Jun/acov_tid352135_thumb.jpg)

*Artist: Mephistos
*Album: Sünder
*Year: 2021
*Genre: Industrial/Gothic Metal
*Country: Austria (IMG:http://metalarea.org/forum/style_images/flags/Austria.png)
*Format: mp3@CBR320kbps
*Size: 136MB

Tracklist:
01. Sünder
02. Amen
03. Daumenlutscher
04. Hass
05. Fleisch Und Blut
06. Vatertag
07. Das Letzte Kind
08. Niemals
09. Ich Muss Hier Raus
10. HPA
11. Roter Schnee
12. Sinnhaft
13. Trauma
******************************
Total playing time: 54:48



Technical info
(IMG:http://metalarea.org/images/spectrogram/2021_Jun/6edb670ee7f22e7e00c562bfb38c2aa7.png)
Input File: 02. Amen.mp3
Channels : 2
Sample Rate : 44100
Precision : 16-bit
Duration : 00:05:23.08 = 14247696 samples = 24230.8 CDDA sectors
File Size : 13.0M
Bit Rate : 321k
Sample Encoding: MPEG audio (layer I, II or III)
Comments :
Title=Amen
Artist=Mephistos
Album=Sunder
Tracknumber=02/13
Year=2021
Genre=Metal
Discnumber=1



Register


Go to the top of the page
  Insert nick Quick quote
+Quote Post
 
Start new topic
Replies (1 - 2)
post Jun 23 2022, 02:02:30    Сейчас играет: Austrian Metal News - Vol. 2
Post #2

Шесть Литров
******
Group: Металариец
Posts: 602
Releases: 77
From: SteelCity, Upper Austria
On Forums: 9 years 8 months
Thanks: 1118 time(s)
Austria


Their track "HPA" (for "Hardcore Porno Action") is featured on Austrian Metal News - Vol. 2:


(IMG:https://f4.bcbits.com/img/a1861547507_10.jpg)
Go to the top of the page
  Insert nick Quick quote
+Quote Post
post Jun 24 2022, 19:08:03
Post #3

Мегаманьяк
***********
Group: Металариец
Posts: 1,579
Releases: 0
On Forums: 13 years 9 months
Thanks: 611 time(s)
South Korea


1. 320 kbps from the web:

Register


2. Each track previewable or downloadable at 320 kbps for free if you want to preview or miss some tracks:

Register


[All credits go to the band and the original posters].
Go to the top of the page
  Insert nick Quick quote
+Quote Post

Reply to this topicStart new topic
1 User(s) are reading this topic (1 Guests and 0 Anonymous Users)
0 Members:

 



- Lo-Fi Version Support form
Copyrights and abuse reports form
Time is now: 27th November 2022 - 02:42:18