Welcome Guest ( Log In | Register )

 
Reply to this topicStart new topic
> Blood Of Raui'ahn - Kingdom Of Inner Animal [ep] (2021), Black/Death Metal
post Sep 24 2021, 16:45:03
Post #1

Правь статус, 616
**************
Group: Металариец
Posts: 7,222
Releases: 5651
From: 55°35’N 38°08’E
On Forums: 13 years 4 months
Thanks: 104125 time(s)
Unknown


(IMG:https://metalarea.org/images/audiocovers/2021_Sep/acov_tid355868_thumb.jpg)

*Artist: Blood Of Raui'ahn
*Album: Kingdom Of Inner Animal [ep]
*Year: 2021
*Genre: Black/Death Metal
*Country: United States (IMG:https://metalarea.org/forum/style_images/flags/United%20States.png)
*Format: mp3@CBR320kbps
*Size: 33MB

Tracklist:
1.Inhaled Fumes of Death 01:34
2.Kingdom of Inner Animal 04:01
3.Master of Death, Breeding and Gluttony 03:31
4.Fetal Speedball 02:58
5.Gnawed Vein 02:23
******************************
Total playing time: 14:27



Technical info
(IMG:https://metalarea.org/images/spectrogram/2021_Sep/2e982dbb7df8770bf43c6d3c43b2fb83.png)
Input File: 02 Kingdom of Inner Animal.mp3
Channels : 2
Sample Rate : 44100
Precision : 16-bit
Duration : 00:04:01.70 = 10659014 samples = 18127.6 CDDA sectors
File Size : 9.86M
Bit Rate : 326k
Sample Encoding: MPEG audio (layer I, II or III)
Comments :
Title=Kingdom of Inner Animal
Artist=Blood of Raui'Ahn
Album=Kingdom of Inner Animal
Tracknumber=2
Year=2021
Genre=Black/Death Metal



Register


Go to the top of the page
  Insert nick Quick quote
+Quote Post

Reply to this topicStart new topic
1 User(s) are reading this topic (1 Guests and 0 Anonymous Users)
0 Members:

 



- Lo-Fi Version Support form
Copyrights and abuse reports form
Time is now: 5th December 2021 - 00:18:09