Welcome Guest ( Log In | Register )

> Releases Upload / Добавление релизов

Добавить релиз тут / Click here to add release
Рекомендованные обменники / Recommended file shares

 
Reply to this topicStart new topic
> Abolition Ritual - Dark Visions Of Torment [demo] (2021), Death/Doom Metal
post Sep 24 2021, 17:07:17
Post #1

Правь статус, ####!616
**************
Group: Металариец
Posts: 7,203
Releases: 5637
From: 55°35’N 38°08’E
On Forums: 13 years 3 months
Thanks: 102873 time(s)
Unknown


(IMG:https://metalarea.org/images/audiocovers/2021_Sep/acov_tid355888_thumb.jpg)

*Artist: Abolition Ritual
*Album: Dark Visions Of Torment [demo]
*Year: 2021
*Genre: Death/Doom Metal
*Country: Italy (IMG:https://metalarea.org/forum/style_images/flags/Italy.png)
*Format: mp3@CBR320kbps
*Size: 38MB

Tracklist:
1.A Shadow Of Horror Has Risen 06:58
2.Dark Visions Of Torment 09:12
******************************
Total playing time: 16:10





Extended info
Abolition Ritual is the death-doom band featuring members of Golem Of Gore, Intolerant, Aborym.


Technical info
(IMG:https://metalarea.org/images/spectrogram/2021_Sep/82875938ede83b847914a1ea7d7805a2.png)
Input File: 01 A Shadow Of Horror Has Risen.mp3
Channels : 2
Sample Rate : 44100
Precision : 16-bit
Duration : 00:06:58.40 = 18451572 samples = 31380.2 CDDA sectors
File Size : 16.9M
Bit Rate : 323k
Sample Encoding: MPEG audio (layer I, II or III)
Comments :
Title=A Shadow Of Horror Has Risen
Artist=Abolition Ritual
Album=Dark Visions Of Torment
Tracknumber=1
Year=2021
Genre=Death Metal



Register


Go to the top of the page
  Insert nick Quick quote
+Quote Post

Reply to this topicStart new topic
1 User(s) are reading this topic (1 Guests and 0 Anonymous Users)
0 Members:

 



- Lo-Fi Version Support form
Copyrights and abuse reports form
Time is now: 21st October 2021 - 22:07:05