Welcome Guest ( Log In | Register )

 
Reply to this topicStart new topic
> Flesh Of Once Demented - Slowly Grinding Are The Mills Of Gods [demo] (2021), Death/Doom Metal
post Oct 10 2021, 14:50:40
Post #1

Правь статус, 616
**************
Group: Металариец
Posts: 7,438
Releases: 5826
From: 55°35’N 38°08’E
On Forums: 13 years 10 months
Thanks: 108060 time(s)
Russian Federation


(IMG:https://metalarea.org/images/audiocovers/2021_Oct/acov_tid356549_thumb.jpg)

*Artist: Flesh Of Once Demented
*Album: Slowly Grinding Are The Mills Of Gods [demo]
*Year: 2021
*Genre: Death/Doom Metal
*Country: Canada (IMG:https://metalarea.org/forum/style_images/flags/Canada.png)
*Format: mp3@CBR320kbps
*Size: 76MB

Tracklist:
1. The Shores at the Ire of Their Subconscious Slumber 11:10
2. Of Dreadful Wounds and Leniency of the Sun 07:04
3. Into the Sempervirent Garden of Flesh 10:13
4. Epiphany of the Ancient Power 04:30
******************************
Total playing time: 32:57



Technical info
(IMG:https://metalarea.org/images/spectrogram/2021_Oct/beaca9e514aa883325886c5f7e881cd6.png)
Input File: 02 Of.dreadful.wounds.and.leniency.of.the.sun.mp3
Channels : 2
Sample Rate : 44100
Precision : 16-bit
Duration : 00:07:04.57 = 18723449 samples = 31842.6 CDDA sectors
File Size : 17.1M
Bit Rate : 323k
Sample Encoding: MPEG audio (layer I, II or III)
Comments :
Title=Of.dreadful.wounds.and.leniency.of.the.sun
Artist=Flesh of Once Demented
Album=Slowly grinding are the mills of gods (demo 2021)
Tracknumber=2
Year=2021
Genre=Metal



Register


Go to the top of the page
  Insert nick Quick quote
+Quote Post
post Oct 11 2021, 22:21:36
Post #2

Чёткий пацан из Автово...
Group Icon
Group: V.I.P
Posts: 9,358
Releases: 39
From: Город над вольной Невой...
On Forums: 15 years 11 months
Thanks: 4844 time(s)
Russian Federation


Ну них*ра же себе.
Некий ядерный коктейль Эзотерико-Дисемболвементовских ингредиентов с соусом из под СептикФлеша.
Это однозначно точно не дум-дэт в прямом его понимании.
Это действительно адовая смесь, перечисленная выше. Медленные гитарки превращаются в грайнд-дэтовый безудержный поезд, который стремится прямиком попасть в горящее жерло преисподней. Под пафосно-величественную СептикФлешовую атмосферу. Если честно, изначально заметив потрясающую обложку, я ожидал что-то плюс-минус такое. Ожидания мать его оправдались. Временами сверх меры)) Полностью на голову еба**тая демка.


Go to the top of the page
  Insert nick Quick quote
+Quote Post

Reply to this topicStart new topic
1 User(s) are reading this topic (1 Guests and 0 Anonymous Users)
0 Members:

 



- Lo-Fi Version Support form
Copyrights and abuse reports form
Time is now: 25th May 2022 - 03:47:40