Welcome Guest ( Log In | Register )

> Releases Upload / Добавление релизов

Добавить релиз тут / Click here to add release
Рекомендованные обменники / Recommended file shares

> Wrath Of Fate - Legal Order (2022), Death Metal
post Jan 13 2022, 21:57:22
Post #1

Восемь Литров
********
Group: Металариец
Posts: 883
Releases: 739
On Forums: 9 months 3 days
Thanks: 18543 time(s)
United States


(IMG:https://metalarea.org/images/audiocovers/2022_Jan/acov_tid360455_thumb.jpg)

*Artist: Wrath Of Fate
*Album: Legal Order
*Year: 2022
*Genre: Death Metal
*Country: Turkey (IMG:https://metalarea.org/forum/style_images/flags/Turkey.png)
*Format: mp3@CBR320kbps
*Size: 93MB

Tracklist:
01. Intro
02. Is Over
03. Annihilation Tale
04. Ghoul
05. Scale of Ma'at
06. Legal Order
07. Resist All Pressure
08. Protest
09. Roots of Hate
10. This Is Not Your Life
******************************
Total playing time: 37:11



Technical info
(IMG:https://metalarea.org/images/spectrogram/2022_Jan/ebd340b4db7321ff6790dd3509a3a9f4.png)
Input File: 02. Is Over.mp3
Channels : 2
Sample Rate : 44100
Precision : 16-bit
Duration : 00:03:33.33 = 9407853 samples = 15999.8 CDDA sectors
File Size : 8.60M
Bit Rate : 323k
Sample Encoding: MPEG audio (layer I, II or III)
Comments :
Title=Is Over
Artist=Wrath Of Fate
Album=Legal Order
Tracknumber=02/10
Year=2022
Genre=Death Metal



Register


Go to the top of the page
  Insert nick Quick quote
+Quote Post
 
Start new topic
Replies (1 - 1)
post Jan 15 2022, 08:29:32
Post #2

Old School Metal
**************
Group: Металариец
Posts: 4,190
Releases: 0
From: г. Минск
On Forums: 12 years 10 months
Thanks: 10319 time(s)
Belarus


Lossless: FLAC (tracks)
Register


Thanks:
(1) Olethros,
Go to the top of the page
  Insert nick Quick quote
+Quote Post

Reply to this topicStart new topic
1 User(s) are reading this topic (1 Guests and 0 Anonymous Users)
0 Members:

 



- Lo-Fi Version Support form
Copyrights and abuse reports form
Time is now: 29th January 2022 - 09:08:14