Welcome Guest ( Log In | Register )

> Releases Upload / Добавление релизов

Добавить релиз тут / Click here to add release
Рекомендованные обменники / Recommended file shares

> Primitive Man - Insurmountable (2022), Sludge/Doom/Death Metal (D)
post May 13 2022, 13:55:47
Post #1

Правь статус, ####!111
**************
Group: Металариец
Posts: 2,683
Releases: 1238
On Forums: 11 years 6 months
Thanks: 24493 time(s)
Russian Federation


(IMG:https://metalarea.org/images/audiocovers/2022_May/acov_tid364733_thumb.jpg)

*Artist: Primitive Man
*Album: Insurmountable
*Year: 2022
*Genre: Sludge/Doom/Death Metal
*Country: United States (IMG:https://metalarea.org/forum/style_images/flags/United%20States.png)
*Format: mp3@CBR320kbps
*Size: 88MB

Tracklist:
1.This Life 12:24
2.Boiled 07:17
3.Cage Intimacy 11:02
4.Quiet 07:44
******************************
Total playing time: 38:27



Technical info
(IMG:https://metalarea.org/images/spectrogram/2022_May/8c1e4b3735c74d0a674b378ce739e1a0.png)
Input File: 03-Cage Intimacy sample.mp3
Channels : 2
Sample Rate : 44100
Precision : 16-bit
Duration : 00:03:01.82 = 8018350 samples = 13636.6 CDDA sectors
File Size : 7.27M
Bit Rate : 320k
Sample Encoding: MPEG audio (layer I, II or III)
Comments :
Title=Cage Intimacy
Artist=Primitive Man
Album=Insurmountable
Tracknumber=03
Year=2022
Genre=Sludge/Doom Metal



Register


Go to the top of the page
  Insert nick Quick quote
+Quote Post
 
Start new topic
Replies (1 - 2)
post May 13 2022, 22:08:24
Post #2

Group: Подсевший
Posts: 15
Releases: 0
On Forums: 5 years 7 months
Thanks: 2 time(s)
Turkey


thanks
Go to the top of the page
  Insert nick Quick quote
+Quote Post
post May 14 2022, 06:02:59
Post #3

Правь статус, ####!111
**************
Group: Металариец
Posts: 50,749
Releases: 932
On Forums: 12 years 11 months
Thanks: 47437 time(s)
Russian Federation


Чот никогда не фпирали, а тут прямо хорошечно по первым ащущениям - мрачно, сыро, грязно, нигилистишна - кароч, как нада, пацаны.

Паслухам целиком.
Go to the top of the page
  Insert nick Quick quote
+Quote Post

Reply to this topicStart new topic
2 User(s) are reading this topic (2 Guests and 0 Anonymous Users)
0 Members:

 



- Lo-Fi Version Support form
Copyrights and abuse reports form
Time is now: 29th May 2022 - 12:04:38