Help - Search - Members - Calendar
Full Version: Primitive Man - Insurmountable (2022)
Metal Area - Extreme Music Portal > Releases Area / Релизы > New Releases
kefka


*Artist: Primitive Man
*Album: Insurmountable
*Year: 2022
*Genre: Sludge/Doom/Death Metal
*Country: United States
*Format: mp3@CBR320kbps
*Size: 88MB

Tracklist:
1.This Life 12:24
2.Boiled 07:17
3.Cage Intimacy 11:02
4.Quiet 07:44
******************************
Total playing time: 38:27



Technical info

Input File: 03-Cage Intimacy sample.mp3
Channels : 2
Sample Rate : 44100
Precision : 16-bit
Duration : 00:03:01.82 = 8018350 samples = 13636.6 CDDA sectors
File Size : 7.27M
Bit Rate : 320k
Sample Encoding: MPEG audio (layer I, II or III)
Comments :
Title=Cage Intimacy
Artist=Primitive Man
Album=Insurmountable
Tracknumber=03
Year=2022
Genre=Sludge/Doom Metal



[ Hidden Text ]
gutturalos
thanks
vosmidesijatye
Чот никогда не фпирали, а тут прямо хорошечно по первым ащущениям - мрачно, сыро, грязно, нигилистишна - кароч, как нада, пацаны.

Паслухам целиком.
This is a "lo-fi" version of our main content. To view the full version with more information, formatting and images, please click here.
Invision Power Board © 2001-2022 Invision Power Services, Inc.