Welcome Guest ( Log In | Register )

> Releases Upload / Добавление релизов

Добавить релиз тут / Click here to add release
Рекомендованные обменники / Recommended file shares

> Serapis - Vita Et Mors (2022), Death Metal
post May 14 2022, 05:45:27
Post #1

Правь статус, ####!111
**************
Group: Металариец
Posts: 2,975
Releases: 1506
On Forums: 11 years 7 months
Thanks: 29678 time(s)
Russian Federation


(IMG:https://metalarea.org/images/audiocovers/2022_May/acov_tid364768_thumb.jpg)

*Artist: Serapis
*Album: Vita Et Mors
*Year: 2022
*Genre: Death Metal
*Country: Austria (IMG:https://metalarea.org/forum/style_images/flags/Austria.png)
*Format: mp3@CBR320kbps
*Size: 69MB

Tracklist:
1.Athanasy 03:53
2.The Isles of Infinity 07:55
3.Morbus Animi 04:09
4.Act of Gods 03:50
5.Avatar of Chaos 04:22
6.The Dark Abyss 06:08
******************************
Total playing time: 30:17



Technical info
(IMG:https://metalarea.org/images/spectrogram/2022_May/95995a1f4ec64e6be1a5d3cfff32d117.png)
Input File: 04 - Act of Gods (feat. Vedrana Šurina).mp3
Channels : 2
Sample Rate : 44100
Precision : 16-bit
Duration : 00:03:50.70 = 10174002 samples = 17302.7 CDDA sectors
File Size : 9.51M
Bit Rate : 330k
Sample Encoding: MPEG audio (layer I, II or III)
Comments :
Title=Act of Gods (feat. Vedrana Šurina)
Artist=Serapis feat. Vedrana Šurina
Album= Vita et Mors
Tracknumber=04
Year=2022
Genre=Progressive Death Metal



Register


Go to the top of the page
  Insert nick Quick quote
+Quote Post
 
Start new topic
Replies (1 - 3)
post May 28 2022, 07:59:42
Post #2

Old School Metal
**************
Group: Металариец
Posts: 4,457
Releases: 0
From: г. Минск
On Forums: 13 years 3 months
Thanks: 11566 time(s)
Belarus


Lossless: FLAC (tracks)
Register


Go to the top of the page
  Insert nick Quick quote
+Quote Post
post May 29 2022, 11:59:42
Post #3

практики шума одухотворяющего
**************
Group: Металариец
Posts: 3,451
Releases: 119
From: хроник дисмембера
On Forums: 4 years 5 months
Thanks: 5330 time(s)
Russian Federation


ЦИТАТА(kefka @ May 14 2022, 08:45:27) *
*Genre: Death Metal


Это интересная EP-шка. Стиль Progressive Death Metal - было бы правильнее указать. То что Австрия - насторожило и оказалось, что действительно - Graf "Ghyuliach" Gyula - выходец из Сербии. Дюже здесь национального южного колорита добавлено, уж никак не на Австрию ориентированного. Бодрый разнообразный материал, затехниченный и с атмосферой хоровода.


Thanks:
(1) AHBAnep,
Go to the top of the page
  Insert nick Quick quote
+Quote Post
post May 29 2022, 13:18:42
Post #4
BAN
Banned till
Aug 17 2022, 15:38:53



Ни о чем.
Go to the top of the page
  Insert nick Quick quote
+Quote Post

Reply to this topicStart new topic
1 User(s) are reading this topic (1 Guests and 0 Anonymous Users)
0 Members:

 



- Lo-Fi Version Support form
Copyrights and abuse reports form
Time is now: 5th July 2022 - 08:22:50