Welcome Guest ( Log In | Register )

> Releases Upload / Добавление релизов

Добавить релиз тут / Click here to add release
Рекомендованные обменники / Recommended file shares

 
Reply to this topicStart new topic
> Noircure - Kyrie (2022), Atmospheric/Post Black Metal
post May 14 2022, 14:49:49
Post #1

Правь статус, ####!111
**************
Group: Металариец
Posts: 2,977
Releases: 1515
On Forums: 11 years 7 months
Thanks: 29783 time(s)
Russian Federation


(IMG:https://metalarea.org/images/audiocovers/2022_May/acov_tid364798_thumb.jpg)

*Artist: Noircure
*Album: Kyrie
*Year: 2022
*Genre: Atmospheric/Post Black Metal
*Country: Italy (IMG:https://metalarea.org/forum/style_images/flags/Italy.png)
*Format: mp3@VBR271kbps
*Size: 98MB

Tracklist:
1.Brumous 07:47
2.Rovi 07:07
3.Kyrie 06:36
4.Mirifical 08:14
5.Petrichor 06:22
6.Halcyon 07:19
7.Endora 06:37
******************************
Total playing time: 50:02



Extended info
Scene CD Rip


Technical info
(IMG:https://metalarea.org/images/spectrogram/2022_May/8c249df0dcedc43df4e8126079631e3e.png)
Input File: 05-nPetrichor.mp3
Channels : 2
Sample Rate : 44100
Precision : 16-bit
Duration : 00:06:23.01 = 16890609 samples = 28725.5 CDDA sectors
File Size : 12.9M
Bit Rate : 270k
Sample Encoding: MPEG audio (layer I, II or III)
Comments :
Title=Petrichor
Artist=Noircure
Album=Kyrie
Tracknumber=05
Year=2022
Genre=Black Metal



Register


Go to the top of the page
  Insert nick Quick quote
+Quote Post

Reply to this topicStart new topic
1 User(s) are reading this topic (1 Guests and 0 Anonymous Users)
0 Members:

 



- Lo-Fi Version Support form
Copyrights and abuse reports form
Time is now: 5th July 2022 - 22:47:46