Welcome Guest ( Log In | Register )

> Bleeding Through - Rage [single] (2022), Metalcore (D)
post May 25 2022, 08:18:47
Post #1

MDM-Thrash Metal
**************
Group: Металариец
Posts: 11,324
Releases: 1571
From: Одесса
On Forums: 15 years 2 days
Thanks: 36945 time(s)
Ukraine


(IMG:http://metalarea.org/images/audiocovers/2022_May/acov_tid365186_thumb.jpg)

*Artist: Bleeding Through
*Album: Rage [single]
*Year: 2022
*Genre: Metalcore
*Country: United States (IMG:http://metalarea.org/forum/style_images/flags/United%20States.png)
*Format: mp3@CBR320kbps
*Size: 9MB

Tracklist:
1. Rage 03:54
******************************
Total playing time: 3:54


(IMG:http://metalarea.org/images/youtube.png)

Extended info
Brandan Schieppati Vocals (1999-2014, 2018-present)
See also: Sorrows, Suffer Well, The Iron Son, ex-Throwdown, ex-Alfalfabet, ex-Breakneck, ex-Die Die My Darling, ex-Eighteen Visions, ex-I Am War, ex-The Innocent, ex-The Mistake
Derek Youngsma Drums (2000-2014, 2018-present)
See also: ex-Cast in Stone, ex-Daggers, ex-Shattered
Brian "Lefty" Leppke Guitars (2001-2014, 2018-present)
See also: Day of Contempt
Ryan Wombacher Bass (2002-2014, 2018-present)
See also: ex-Devil You Know, Light the Torch
Marta Demmel Keyboards (2004-2014, 2018-present)


Technical info
(IMG:http://metalarea.org/images/spectrogram/2022_May/4bedd622a9b7c498f0edc7746629e2b8.png)
Input File: Bleeding Through - Rage.mp3
Channels : 2
Sample Rate : 44100
Precision : 16-bit
Duration : 00:03:54.39 = 10336423 samples = 17579 CDDA sectors
File Size : 9.41M
Bit Rate : 321k
Sample Encoding: MPEG audio (layer I, II or III)
Comments :
Title=Rage
Artist=Bleeding Through



Register


Go to the top of the page
  Insert nick Quick quote
+Quote Post
 
Start new topic
Replies (1 - 1)
post May 25 2022, 11:10:06
Post #2

Ледоруб
**************
Group: Металариец
Posts: 30,618
Releases: 0
From: Санкт-Петербург
On Forums: 12 years 11 months
Thanks: 10910 time(s)
Russian Federation


Явно не только металкор.
Go to the top of the page
  Insert nick Quick quote
+Quote Post

Reply to this topicStart new topic
1 User(s) are reading this topic (1 Guests and 0 Anonymous Users)
0 Members:

 



- Lo-Fi Version Support form
Copyrights and abuse reports form
Time is now: 11th August 2022 - 18:47:06