Welcome Guest ( Log In | Register )

Объявления

* gmail.com упорно продолжает считать почту с нас "unsolicited" и отбивает в том числе и письма активации, поэтому просьба использовать альтернативные почтовые ящики.
------------
* gmail.com continues reject all mail from us as "unsolicited" (activation mails too) therefore please use alternate mail servers.
> Massacre - Mythos [ep] (2022), Death Metal (D)
post Jun 30 2022, 11:34:12
Post #1

Serial Uploader
Group Icon
Group: V.I.P
Posts: 42,768
Releases: 40831
From: Lithuania
On Forums: 16 years 1 week
Thanks: 523808 time(s)
Lithuania


(IMG:https://metalarea.org/images/audiocovers/2022_Jun/acov_tid366610_thumb.jpg)

*Artist: Massacre
*Album: Mythos [ep]
*Year: 2022
*Genre: Death Metal
*Country: United States (IMG:https://metalarea.org/forum/style_images/flags/United%20States.png)
*Format: mp3@CBR320kbps
*Size: 36MB

Tracklist:
01. Behind The Serpent's Curse (feat. Anders Odden) 04:42
02. The Dunwich Horror 02:58
03. The Mythos That Lovecraft Built 03:37
04. The Thing On The Doorstep 03:56
******************************
Total playing time: 15:13





(IMG:https://metalarea.org/images/youtube.png)

Technical info
(IMG:https://metalarea.org/images/spectrogram/2022_Jun/012bd722d0547010ecb95e4c5746fad0.png)
Input File: 02 - The Dunwich Horror.mp3
Channels : 2
Sample Rate : 44100
Precision : 16-bit
Duration : 00:02:58.00 = 7849800 samples = 13350 CDDA sectors
File Size : 7.40M
Bit Rate : 332k
Sample Encoding: MPEG audio (layer I, II or III)
Comments :
Title=The Dunwich Horror
Artist=Massacre
Album=Mythos
Tracknumber=2
Year=2022-07-01
Genre=Rock
Discnumber=1



Register


Go to the top of the page
  Insert nick Quick quote
+Quote Post
 
Start new topic
Replies (1 - 8)
post Jul 1 2022, 04:59:32
Post #2

кручу наждак
**************
Group: Металариец
Posts: 6,587
Releases: 111
From: Самара
On Forums: 14 years 1 month
Thanks: 5146 time(s)
Russian Federation


Проходняк. Рогга низводит до своего уровня все, к чему прикасается.


Go to the top of the page
  Insert nick Quick quote
+Quote Post
post Jul 1 2022, 09:34:33
Post #3

Два Литра
**
Group: Завсегдатай
Posts: 147
Releases: 0
From: Kyiv
On Forums: 17 years 10 months
Thanks: 68 time(s)
Ukraine


В принципе неплохо. Можно слушать
Go to the top of the page
  Insert nick Quick quote
+Quote Post
post Jul 2 2022, 05:28:01
Post #4

Old School Metal
**************
Group: Металариец
Posts: 4,775
Releases: 0
From: г. Минск
On Forums: 15 years 3 months
Thanks: 13952 time(s)
Belarus


Lossless: FLAC (tracks)
Register


Go to the top of the page
  Insert nick Quick quote
+Quote Post
post Jul 2 2022, 10:53:43
Post #5

Четыре Литра
****
Group: Металариец
Posts: 382
Releases: 0
On Forums: 14 years 6 months
Thanks: 146 time(s)
Russian Federation


Без откровений
Go to the top of the page
  Insert nick Quick quote
+Quote Post
post Jul 6 2022, 14:10:35
Post #6

Трезвый мастер
Group Icon
Group: Moderation team
Posts: 4,981
Releases: 1
On Forums: 13 years 11 months
Thanks: 2884 time(s)
Russian Federation


Задорный дэт старой школы. Заходит сходу.
ЦИТАТА(igore2911 @ Jul 2 2022, 17:53:43) *
Без откровений

Ну тут не про откровения, а скорее про следование традициям стиля. И тут в этом крепкий середняк. Если и альбом в таком ключе выпустят вдруг, меня вполне устроит.


Thanks:
(1) Occultas,
Go to the top of the page
  Insert nick Quick quote
+Quote Post
post Jul 7 2022, 12:52:43
Post #7

Правь статус, ####!111
**************
Group: Металариец
Posts: 3,838
Releases: 18
From: South Of Heaven
On Forums: 13 years 9 months
Thanks: 5016 time(s)
Russian Federation


Бодрячковый дэт, нормально зашёл.


Thanks:
(1) Occultas,
Go to the top of the page
  Insert nick Quick quote
+Quote Post
post Jul 12 2022, 21:14:20
Post #8

Три Литра
***
Group: Завсегдатай
Posts: 228
Releases: 1
From: Переделкино
On Forums: 15 years 7 months
Thanks: 22 time(s)
Russian Federation


Последний полноформат овно, а это завтра послушаю!
Go to the top of the page
  Insert nick Quick quote
+Quote Post
post Jul 20 2022, 12:03:21
Post #9

Шесть Литров
******
Group: Металариец
Posts: 587
Releases: 0
From: Город Герой Москва!
On Forums: 17 years 9 months
Thanks: 54 time(s)
Russian Federation


(IMG:style_emoticons/default/t2017.gif)
(IMG:style_emoticons/default/true_black.gif)


Thanks:
(1) Occultas,
Go to the top of the page
  Insert nick Quick quote
+Quote Post

Reply to this topicStart new topic
1 User(s) are reading this topic (1 Guests and 0 Anonymous Users)
0 Members:

 



- Lo-Fi Version Support form
Copyrights and abuse reports form
Time is now: 17th June 2024 - 12:12:54