Welcome Guest ( Log In | Register )

Объявления

* gmail.com упорно продолжает считать почту с нас "unsolicited" и отбивает в том числе и письма активации, поэтому просьба использовать альтернативные почтовые ящики.
------------
* gmail.com continues reject all mail from us as "unsolicited" (activation mails too) therefore please use alternate mail servers.
> Aerdryk - Met De Drietand Op Mijn Huid (2022), Black Metal
post Aug 15 2022, 16:57:03
Post #1

Правь статус, ####!111
**************
Group: Металариец
Posts: 7,620
Releases: 6969
From: Одесса
On Forums: 16 years 2 weeks
Thanks: 81319 time(s)
Ukraine


(IMG:http://metalarea.org/images/audiocovers/2022_Aug/acov_tid368317_thumb.jpg)

*Artist: Aerdryk
*Album: Met De Drietand Op Mijn Huid
*Year: 2022
*Genre: Black Metal
*Country: Belgium (IMG:http://metalarea.org/forum/style_images/flags/Belgium.png)
*Format: mp3@CBR320kbps
*Size: 95MB

Tracklist:
Side A
1. Mijn boetedoening 06:24
2. Kruisweg 04:50
3. De modderige paden 06:46
4. Met de drietand op mijn huid 04:48
Side B
5. De rode klauwen 05:47
6. Berouw 05:00
7. Doodgeboren 07:04
******************************
Total playing time: 40:39



Extended info
AERDRYK makes a clear black metal statement both in execution and atmosphere. While the guitars rage on in an almost hidden, intrinsic way; the entirety of the sound of AERDRYK is carried by multiple layers of reverb and exquisite ethereal synths. Within this groundwork, fast-paced blast beats reveal the contrast of this band; melding razor sharp guitar melodies and a multi-layered atmosphere. This balance is felt as well by the old-school harsh vocals, supported by epic clean chants. Every song on this album is a journey, one into time and history itself. Underneath it all, the bass guitar relentlessly deviates from its classical role and continues a journey on its own, like a deep-felt restlessness we carry with us along this pilgrimage. ‘MET DE DRIETAND OP MIJN HUID’ feels like a return and departure to 90’s black metal at the same time, featuring a brilliant songwriting craft and Flemish story-telling.


Technical info
(IMG:http://metalarea.org/images/spectrogram/2022_Aug/254e96d6195347678f2ab798fc86f902.png)
Input File: 01. Mijn Boetedoening.mp3
Channels : 2
Sample Rate : 44100
Precision : 16-bit
Duration : 00:06:24.31 = 16948115 samples = 28823.3 CDDA sectors
File Size : 15.4M
Bit Rate : 320k
Sample Encoding: MPEG audio (layer I, II or III)
Comments :
Title=Mijn Boetedoening
Artist=Aerdryk
Album=Met de Drietand op mijn Huid
Tracknumber=1
Year=2022
Genre=138



Register


Go to the top of the page
  Insert nick Quick quote
+Quote Post
 
Start new topic
Replies (1 - 3)
post Aug 16 2022, 09:02:48
Post #2

Common dweller of hell
**************
Group: Металариец
Posts: 5,444
Releases: 12
From: Dnipro
On Forums: 15 years 11 months
Thanks: 2207 time(s)
Ukraine


atmospheric black metal


Thanks:
(1) stormhatt,
Go to the top of the page
  Insert nick Quick quote
+Quote Post
post Oct 22 2022, 00:02:57
Post #3

Правь статус, ####!111
**************
Group: Металариец
Posts: 5,173
Releases: 1568
From: Brazil
On Forums: 12 years 4 months
Thanks: 64301 time(s)
Brazil


Register

mp3@CBR320kbps


Go to the top of the page
  Insert nick Quick quote
+Quote Post
post Nov 26 2022, 00:31:05
Post #4

Литр
*
Group: Подсевший
Posts: 56
Releases: 0
On Forums: 4 years 9 months
Thanks: 4 time(s)
Unknown


Amazingly atmospheric and bleak black metal with some beautiful gregorian-like chants, which I like a lot (IMG:style_emoticons/default/20.gif) (IMG:style_emoticons/default/smile1.gif)
Go to the top of the page
  Insert nick Quick quote
+Quote Post

Reply to this topicStart new topic
1 User(s) are reading this topic (1 Guests and 0 Anonymous Users)
0 Members:

 



- Lo-Fi Version Support form
Copyrights and abuse reports form
Time is now: 21st June 2024 - 23:50:46